<?xml version="1.0" standalone="no"?>
<!DOCTYPE svg PUBLIC "-//W3C//DTD SVG 1.1//EN" "http://www.w3.org/Graphics/SVG/1.1/DTD/svg11.dtd" >
<svg xmlns="http://www.w3.org/2000/svg">
<metadata>Generated by IcoMoon</metadata>
<defs>
<font id="icomoon" horiz-adv-x="1024">
<font-face units-per-em="1024" ascent="960" descent="-64" />
<missing-glyph horiz-adv-x="1024" />
<glyph unicode="&#x20;" horiz-adv-x="512" d="" />
<glyph unicode="&#xe900;" glyph-name="Account2_green" horiz-adv-x="1017" d="M520.499-64h-474.010c-0.026 0-0.056 0-0.086 0-13.014 0-24.774 5.371-33.184 14.018l-0.010 0.011c-8.181 8.402-13.226 19.892-13.226 32.561 0 0.433 0.006 0.864 0.018 1.294l-0.001-0.063c7.475 256.614 128.819 371.098 394.957 371.098 13.517 0 26.522-0.512 39.322-1.126-10.563-39.586-16.63-85.033-16.63-131.897 0-2.339 0.015-4.674 0.045-7.005l-0.004 0.354c0-130.458 33.485-222.413 102.4-279.245zM394.957 448c174.694 0 256 81.306 256 256s-81.306 256-256 256-256-81.92-256-256 81.408-256 256-256zM1007.616 73.933c-12.328-20.791-34.654-34.51-60.184-34.51-13.036 0-25.237 3.577-35.674 9.803l0.319-0.176-21.811 12.8c-15.223-10.807-33.036-19.196-52.236-24.128l-1.114-0.243v-31.744c0.033-0.797 0.051-1.733 0.051-2.674 0-38.57-31.267-69.837-69.837-69.837s-69.837 31.267-69.837 69.837c0 0.94 0.019 1.876 0.055 2.807l-0.004-0.134v31.744c-20.427 5.042-38.359 13.411-54.15 24.6l0.493-0.331-21.811-12.698c-10.191-6.149-22.498-9.788-35.655-9.788-38.57 0-69.837 31.267-69.837 69.837 0 25.638 13.815 48.049 34.407 60.195l0.326 0.178 30.72 18.227c-0.922 8.806-0.922 17.92-0.922 27.546s0.512 18.842 1.331 27.648l-30.72 18.227c-22.714 11.836-37.956 35.206-37.956 62.135 0 38.57 31.267 69.837 69.837 69.837 14.324 0 27.641-4.312 38.723-11.71l-0.255 0.16 21.811-12.8c15.301 10.827 33.235 19.162 52.572 23.939l1.086 0.227v31.846c-0.033 0.797-0.051 1.733-0.051 2.674 0 38.57 31.267 69.837 69.837 69.837s69.837-31.267 69.837-69.837c0-0.94-0.019-1.876-0.055-2.807l0.004 0.134v-31.846c20.458-5.007 38.427-13.342 54.262-24.502l-0.502 0.335 21.811 12.8c9.712 5.443 21.314 8.649 33.664 8.649 38.57 0 69.837-31.267 69.837-69.837 0-24.863-12.992-46.691-32.558-59.065l-0.287-0.169-30.72-18.227c0.819-8.806 1.331-17.92 1.331-27.648s0-18.739-1.331-27.546l30.72-18.227c20.62-12.366 34.206-34.599 34.206-60.005 0-13.109-3.617-25.374-9.908-35.85l0.176 0.316zM836.915 215.245c0 55.501-14.336 69.837-69.837 69.837s-69.837-14.336-69.837-69.837 14.336-69.837 69.837-69.837 69.837 14.336 69.837 69.837z" />
<glyph unicode="&#xe901;" glyph-name="Account2_white" horiz-adv-x="1017" d="M520.499-64h-473.907c-13.090 0.012-24.915 5.42-33.372 14.12l-0.011 0.011c-8.183 8.357-13.232 19.81-13.232 32.443 0 0.511 0.008 1.019 0.025 1.526l-0.002-0.074c6.963 256 128.819 370.893 394.957 370.893 13.619 0 26.522-0.512 39.322-1.126-10.563-39.577-16.63-85.013-16.63-131.867 0-2.313 0.015-4.622 0.044-6.928l-0.004 0.351c0-130.458 33.485-222.515 102.4-279.347zM394.957 448c174.694 0 256 81.408 256 256s-81.306 256-256 256-256-81.92-256-256 81.408-256 256-256zM1007.616 73.933c-12.328-20.791-34.654-34.51-60.184-34.51-13.036 0-25.237 3.577-35.674 9.803l0.319-0.176-21.811 12.8c-15.306-10.806-33.237-19.139-52.564-23.937l-1.094-0.23v-31.846c0-38.57-31.267-69.837-69.837-69.837s-69.837 31.267-69.837 69.837v0 31.846c-20.42 5.028-38.351 13.36-54.16 24.502l0.503-0.336-21.811-12.8c-10.061-5.949-22.172-9.464-35.104-9.464-38.57 0-69.837 31.267-69.837 69.837 0 25.413 13.574 47.656 33.867 59.873l0.315 0.176 30.72 18.33c-0.819 8.704-1.331 17.818-1.331 27.546s0.512 18.739 1.331 27.546l-30.72 18.227c-20.608 12.393-34.182 34.636-34.182 60.049 0 38.57 31.267 69.837 69.837 69.837 12.932 0 25.043-3.515 35.429-9.641l-0.326 0.178 21.811-12.8c15.315 10.795 33.236 19.155 52.544 24.031l1.113 0.238v31.334c0 38.57 31.267 69.837 69.837 69.837s69.837-31.267 69.837-69.837v0-31.334c20.425-5.063 38.354-13.429 54.156-24.603l-0.498 0.334 21.811 12.8c10.5 6.653 23.285 10.602 36.992 10.602 38.57 0 69.837-31.267 69.837-69.837 0-26.22-14.449-49.064-35.819-61.006l-0.354-0.182-30.72-18.227c0.819-8.806 1.331-17.92 1.331-27.546s-0.512-18.739-1.331-27.546l30.72-18.33c20.791-12.328 34.51-34.654 34.51-60.184 0-13.036-3.577-25.237-9.803-35.674l0.176 0.319zM836.608 215.245c0 55.501-14.336 69.837-69.837 69.837s-69.837-14.336-69.837-69.837 14.336-69.837 69.837-69.837 69.837 14.336 69.837 69.837z" />
<glyph unicode="&#xe902;" glyph-name="news_white" horiz-adv-x="997" d="M700.581 636.645v53.871h-700.581v-646.71c0.183-59.466 48.34-107.623 107.789-107.806h592.792v107.806h-53.871v53.871h53.871v53.936h-53.871v53.871h53.871v53.871h-53.871v53.936h53.871v53.871h-53.871v53.871h53.871v53.936h-53.871v53.871h53.871v53.871h-53.871v53.936zM592.839 43.806h-215.613v53.871h215.613zM592.839 151.613h-215.613v53.871h215.613zM592.839 259.355h-215.613v53.936h215.613zM592.839 367.161h-215.613v53.871h215.613zM592.839 474.968h-215.613v53.871h215.613zM592.839 582.71h-215.613v53.936h215.613zM215.548 960v-916.194c-0.147-59.458-48.289-107.623-107.724-107.806h781.401c59.466 0.183 107.623 48.34 107.806 107.789v916.212zM592.839 43.806h-215.613v53.871h215.613zM592.839 151.613h-215.613v53.871h215.613zM592.839 259.355h-215.613v53.936h215.613zM592.839 367.161h-215.613v53.871h215.613zM592.839 474.968h-215.613v53.871h215.613zM592.839 582.71h-215.613v53.936h215.613zM862.258 43.806h-215.548v53.871h215.548zM862.258 151.613h-215.548v53.871h215.548zM862.258 259.355h-215.548v53.936h215.548zM862.258 367.161h-215.548v53.871h215.548zM862.258 474.968h-215.548v53.871h215.548zM862.258 582.71h-215.548v53.936h215.548zM862.258 717.484h-485.032v107.742h485.032z" />
<glyph unicode="&#xe903;" d="M248.242 960h527.515c137.101 0 248.242-111.142 248.242-248.242v-527.515c0-137.101-111.142-248.242-248.242-248.242h-527.515c-137.101 0-248.242 111.142-248.242 248.242v527.515c0 137.101 111.142 248.242 248.242 248.242z" />
<glyph unicode="&#xe904;" d="M432.966 176.144h158.068v332.971h-158.068v-332.971zM314.073 532.837h395.854v99.297h-395.854v-99.297z" />
<glyph unicode="&#xe905;" glyph-name="Blogs2_green" d="M547.691 958.74c-10.693 0.795-23.162 1.249-35.737 1.249-282.775 0-512.010-229.235-512.010-512.010 0-12.812 0.471-25.515 1.395-38.091l-0.099 1.681c18.86-271.105 258.225-475.569 556.991-475.569h252.465c117.804 0.080 213.288 95.528 213.424 213.311v284.179c0 276.445-209.344 507.25-476.429 525.25zM729.454 491.311c-0.006 0-0.013 0-0.020 0-23.561 0-42.661 19.1-42.661 42.661 0 0.007 0 0.014 0 0.021v-0.001c0 0.018 0 0.039 0 0.060 0 23.565-19.097 42.669-42.66 42.681h-85.343v-341.347h42.681c23.561 0 42.661-19.1 42.661-42.661s-19.1-42.661-42.661-42.661v0h-170.683c-23.561 0-42.661 19.1-42.661 42.661s19.1 42.661 42.661 42.661h42.681v341.347h-85.342c-23.547-0.034-42.627-19.114-42.661-42.658v-0.003c0.006-0.275 0.010-0.599 0.010-0.924 0-23.572-19.109-42.681-42.681-42.681s-42.681 19.109-42.681 42.681c0 0.325 0.004 0.649 0.011 0.972l-0.001-0.048c0.091 70.657 57.345 127.911 127.994 128.002h256.014c70.657-0.091 127.911-57.345 128.002-127.994v-0.009c0-0.006 0-0.013 0-0.020 0-23.561-19.1-42.661-42.661-42.661v0z" />
<glyph unicode="&#xe906;" glyph-name="Blogs2_white" d="M547.691 958.74c-10.693 0.795-23.162 1.249-35.737 1.249-282.775 0-512.010-229.235-512.010-512.010 0-12.812 0.471-25.515 1.395-38.091l-0.099 1.681c18.86-271.105 258.225-475.569 556.991-475.569h252.465c117.804 0.080 213.288 95.528 213.424 213.311v284.179c0 276.445-209.344 507.25-476.429 525.25zM729.454 491.311c-0.006 0-0.013 0-0.020 0-23.561 0-42.661 19.1-42.661 42.661 0 0.007 0 0.014 0 0.021v-0.001c0 0.018 0 0.039 0 0.060 0 23.565-19.097 42.669-42.66 42.681h-85.343v-341.347h42.681c23.561 0 42.661-19.1 42.661-42.661s-19.1-42.661-42.661-42.661v0h-170.683c-23.561 0-42.661 19.1-42.661 42.661s19.1 42.661 42.661 42.661h42.681v341.347h-85.342c-23.547-0.034-42.627-19.114-42.661-42.658v-0.003c0.006-0.275 0.010-0.599 0.010-0.924 0-23.572-19.109-42.681-42.681-42.681s-42.681 19.109-42.681 42.681c0 0.325 0.004 0.649 0.011 0.972l-0.001-0.048c0.091 70.657 57.345 127.911 127.994 128.002h256.014c70.657-0.091 127.911-57.345 128.002-127.994v-0.009c0-0.006 0-0.013 0-0.020 0-23.561-19.1-42.661-42.661-42.661v0z" />
<glyph unicode="&#xe907;" glyph-name="chats2_green" horiz-adv-x="1150" d="M1006.508 960h-862.532c-0.504 0.006-1.1 0.010-1.696 0.010-78.078 0-141.468-62.888-142.28-140.773l-0.001-0.077v-563.782c0-77.748 48.254-148.44 127.812-148.44h298.267l149.103-171.24 149.103 170.697h298.267c79.377 0 127.812 70.691 127.812 148.44v564.325c-0.848 77.969-64.251 140.848-142.34 140.848-0.533 0-1.065-0.003-1.597-0.009l0.081 0.001zM276.674 457.319c-35.266 0.103-63.815 28.715-63.815 63.996 0 35.344 28.652 63.996 63.996 63.996 35.323 0 63.962-28.618 63.996-63.932v-0.003c0-0.036 0-0.078 0-0.121 0-35.311-28.625-63.936-63.936-63.936 0 0 0 0 0 0v0zM574.941 457.319c-35.266 0.103-63.815 28.715-63.815 63.996 0 35.344 28.652 63.996 63.996 63.996 35.323 0 63.962-28.618 63.996-63.932v-0.003c0-0.018 0-0.039 0-0.060 0-35.323-28.618-63.962-63.933-63.996h-0.003zM873.147 457.319c-0.018 0-0.039 0-0.060 0-35.344 0-63.996 28.652-63.996 63.996s28.652 63.996 63.996 63.996c35.323 0 63.962-28.618 63.996-63.933v-0.003c0-0.036 0-0.079 0-0.121 0-35.226-28.488-63.798-63.682-63.935h-0.013z" />
<glyph unicode="&#xe908;" glyph-name="chats2_white" horiz-adv-x="1150" d="M1006.508 960h-862.532c-0.504 0.006-1.1 0.010-1.696 0.010-78.078 0-141.468-62.888-142.28-140.773l-0.001-0.077v-563.782c0-77.748 48.254-148.44 127.812-148.44h298.267l149.103-171.24 149.103 170.697h298.267c79.377 0 127.812 70.691 127.812 148.44v564.325c-0.848 77.969-64.251 140.848-142.34 140.848-0.533 0-1.065-0.003-1.597-0.009l0.081 0.001zM276.674 457.319c-35.266 0.103-63.815 28.715-63.815 63.996 0 35.344 28.652 63.996 63.996 63.996 35.323 0 63.962-28.618 63.996-63.932v-0.003c0-0.036 0-0.078 0-0.121 0-35.311-28.625-63.936-63.936-63.936 0 0 0 0 0 0v0zM574.941 457.319c-35.266 0.103-63.815 28.715-63.815 63.996 0 35.344 28.652 63.996 63.996 63.996 35.323 0 63.962-28.618 63.996-63.932v-0.003c0-0.018 0-0.039 0-0.060 0-35.323-28.618-63.962-63.933-63.996h-0.003zM873.147 457.319c-0.018 0-0.039 0-0.060 0-35.344 0-63.996 28.652-63.996 63.996s28.652 63.996 63.996 63.996c35.323 0 63.962-28.618 63.996-63.933v-0.003c0-0.036 0-0.079 0-0.121 0-35.226-28.488-63.798-63.682-63.935h-0.013z" />
<glyph unicode="&#xe909;" d="M248.242 960h527.515c137.101 0 248.242-111.142 248.242-248.242v-527.515c0-137.101-111.142-248.242-248.242-248.242h-527.515c-137.101 0-248.242 111.142-248.242 248.242v527.515c0 137.101 111.142 248.242 248.242 248.242z" />
<glyph unicode="&#xe90a;" d="M730.996 591.205s-51.821-244.674-62.061-293.547c-6.097-54.768-85.333-113.261-157.944-40.805l-20.868 21.721c-3.533 4.767-9.141 7.824-15.463 7.824-1.026 0-2.033-0.081-3.016-0.236l0.109 0.014h-56.879c-7.161 0.125-13.787 2.308-19.343 5.98l0.135-0.084 329.511 329.387c4.025-6.568 6.408-14.519 6.408-23.027 0-2.553-0.215-5.055-0.627-7.49l0.037 0.262zM365.444 335.205v56.941c0.149 0.902 0.235 1.941 0.235 3.001 0 6.308-3.028 11.908-7.71 15.427l-0.050 0.036-21.721 20.79c-72.27 72.921-13.793 152.204 40.944 158.255 48.873 10.24 293.236 61.905 293.236 61.905 2.142 0.37 4.609 0.582 7.126 0.582 8.494 0 16.424-2.411 23.145-6.586l-0.187 0.108-329.216-329.697c-3.54 5.444-5.688 12.079-5.802 19.209v0.030z" />
<glyph unicode="&#xe90b;" glyph-name="contactus2_green" d="M1011.060 886.68l-789.74-789.54c15.994-7.975 34.823-12.688 54.743-12.8h135.297c0.042 0 0.092 0 0.142 0 11.731 0 22.348-4.771 30.016-12.478l73.302-73.262c38.37-38.623 91.496-62.545 150.21-62.6h0.010c24.516 0.024 48.059 4.16 69.986 11.754l-1.506-0.454c75.357 25.257 130.917 89.958 142.581 168.954l0.139 1.146 144 684.38c2.251 8.916 3.543 19.151 3.543 29.688 0 20.092-4.697 39.088-13.053 55.948l0.33-0.736zM866.94 956.7l-682.72-143.84c-104.64-14.73-184.268-103.671-184.268-211.21 0-58.892 23.881-112.207 62.487-150.789l73.261-73.261c7.711-7.718 12.48-18.377 12.48-30.15 0-0.017 0-0.035 0-0.052v0.003-135.26c0.112-19.957 4.825-38.786 13.131-55.517l-0.331 0.737 789.62 789.82c-16.086 8.086-35.055 12.821-55.13 12.821-10.12 0-19.96-1.203-29.382-3.475l0.853 0.174z" />
<glyph unicode="&#xe90c;" glyph-name="contactus2_white" d="M1011.060 886.68l-789.74-789.54c15.994-7.975 34.823-12.688 54.743-12.8h135.297c0.042 0 0.092 0 0.142 0 11.731 0 22.348-4.771 30.016-12.478l73.302-73.262c38.37-38.623 91.496-62.545 150.21-62.6h0.010c24.516 0.024 48.059 4.16 69.986 11.754l-1.506-0.454c75.357 25.257 130.917 89.958 142.581 168.954l0.139 1.146 144 684.38c2.251 8.916 3.543 19.151 3.543 29.688 0 20.092-4.697 39.088-13.053 55.948l0.33-0.736zM866.94 956.7l-682.72-143.84c-104.64-14.73-184.268-103.671-184.268-211.21 0-58.892 23.881-112.207 62.487-150.789l73.261-73.261c7.711-7.718 12.48-18.377 12.48-30.15 0-0.017 0-0.035 0-0.052v0.003-135.26c0.112-19.957 4.825-38.786 13.131-55.517l-0.331 0.737 789.62 789.82c-16.086 8.086-35.055 12.821-55.13 12.821-10.12 0-19.96-1.203-29.382-3.475l0.853 0.174z" />
<glyph unicode="&#xe90d;" glyph-name="Dashboard2_green" d="M170.66 960h128c94.257 0 170.669-76.405 170.68-170.659v-128.001c0-94.264-76.416-170.68-170.68-170.68v0h-128c-94.255 0.011-170.66 76.423-170.66 170.68v128c0.011 94.248 76.412 170.649 170.659 170.66h0.001zM725.34 960h128c94.253 0 170.66-76.407 170.66-170.66v-128c0-94.257-76.405-170.669-170.659-170.68h-128.001c-94.264 0-170.68 76.416-170.68 170.68v128c0.011 94.255 76.423 170.66 170.68 170.66v0zM170.66 405.34h128c94.264 0 170.68-76.416 170.68-170.68v0-128c-0.011-94.255-76.423-170.66-170.68-170.66h-128c-94.253 0-170.66 76.407-170.66 170.66v0 128c0 94.257 76.405 170.669 170.659 170.68h0.001zM725.34 405.34h128c94.255-0.011 170.66-76.423 170.66-170.68v-128c0-94.253-76.407-170.66-170.66-170.66v0h-128c-94.257 0-170.669 76.405-170.68 170.659v128.001c0 94.264 76.416 170.68 170.68 170.68v0z" />
<glyph unicode="&#xe90e;" glyph-name="Dashboard2_white" d="M170.66 960h128c94.257 0 170.669-76.405 170.68-170.659v-128.001c0-94.264-76.416-170.68-170.68-170.68v0h-128c-94.255 0.011-170.66 76.423-170.66 170.68v128c0.011 94.248 76.412 170.649 170.659 170.66h0.001zM725.34 960h128c94.253 0 170.66-76.407 170.66-170.66v-128c0-94.257-76.405-170.669-170.659-170.68h-128.001c-94.264 0-170.68 76.416-170.68 170.68v128c0.011 94.255 76.423 170.66 170.68 170.66v0zM170.66 405.34h128c94.264 0 170.68-76.416 170.68-170.68v0-128c-0.011-94.255-76.423-170.66-170.68-170.66h-128c-94.253 0-170.66 76.407-170.66 170.66v0 128c0 94.257 76.405 170.669 170.659 170.68h0.001zM725.34 405.34h128c94.255-0.011 170.66-76.423 170.66-170.68v-128c0-94.253-76.407-170.66-170.66-170.66v0h-128c-94.257 0-170.669 76.405-170.68 170.659v128.001c0 94.264 76.416 170.68 170.68 170.68v0z" />
<glyph unicode="&#xe90f;" glyph-name="shop_white" horiz-adv-x="1153" d="M954.417 294.275h-514.754l-146.576 497.375h789.019c0.002 0 0.004 0 0.006 0 39.009 0 70.632-31.623 70.632-70.632 0-7.13-1.057-14.014-3.022-20.503l0.13 0.5-98.373-334.469c-12.75-42.273-51.339-72.532-96.996-72.534v0zM438.154 11.026c0-0.019 0-0.042 0-0.066 0-41.436 33.59-75.026 75.026-75.026s75.026 33.59 75.026 75.026c0 41.436-33.59 75.026-75.026 75.026-0.023 0-0.046 0-0.069 0h0.003c-41.385-0.037-74.923-33.576-74.96-74.957v-0.003zM826.139 11.026c-0.021-0.661-0.033-1.438-0.033-2.218 0-41.436 33.59-75.026 75.026-75.026s75.026 33.59 75.026 75.026c0 0.78-0.012 1.557-0.036 2.331l0.003-0.113c-1.234 40.47-34.337 72.808-74.993 72.808s-73.759-32.338-74.99-72.695l-0.003-0.113zM976.453 125.926h-554.235c-22.643 0.004-41.777 15.027-47.98 35.65l-0.092 0.355-205.666 697.794h-118.048c-26.917 1.004-48.357 23.067-48.357 50.138s21.44 49.133 48.265 50.135l0.091 0.003h155.561c22.62-0.018 41.735-15.002 47.979-35.584l0.093-0.355 205.666-697.86h516.722c26.917-1.004 48.357-23.067 48.357-50.138s-21.44-49.133-48.265-50.135l-0.091-0.003z" />
<glyph unicode="&#xe910;" glyph-name="Entertainment_white" horiz-adv-x="1383" d="M1022.898 531.923c0-34.072-27.621-61.693-61.693-61.693s-61.693 27.621-61.693 61.693c0 34.072 27.621 61.693 61.693 61.693s61.693-27.621 61.693-61.693zM1263.534 960h-1144.16l-119.374-1024h433.27l108.199 178.785h286.040l108.199-178.785h447.513zM571.844 476.761h-90.73v-90.73h-110.167v90.73h-91.045v110.167h91.045v90.73h110.167v-90.73h90.73zM961.205 360.299c-94.916 0-171.86 76.945-171.86 171.86s76.944 171.86 171.86 171.86c94.916 0 171.86-76.944 171.86-171.86 0-0.111 0-0.221 0-0.332v0.017c-0.313-94.726-77.109-171.412-171.847-171.545h-0.013z" />
<glyph unicode="&#xe911;" glyph-name="DisconnectionPolicy2_green" horiz-adv-x="1094" d="M1084.234 612.935c-36.014-48.923-159.703 126.91-409.309 173.896v94.456c262.975-47.228 463.391-194.725 409.309-268.352zM674.924 452.117c134.588-36.571 149.798-109.956 108.164-141.926-22.718-17.438-44.467 25.673-115.793 50.377 4.754 11.765 7.548 25.405 7.629 39.687v51.863zM539.998-63.758c-0.209-0.001-0.455-0.002-0.702-0.002-84.737 0-153.43 68.693-153.43 153.43s68.693 153.43 153.43 153.43c84.694 0 153.36-68.623 153.43-153.301v-0.007c0-0.108 0-0.236 0-0.364 0-84.408-68.268-152.871-152.601-153.187h-0.030zM546.367 320.363c-0.058 0-0.126 0-0.194 0-35.342 0-64.002 28.609-64.085 63.932v511.524c0 35.5 28.778 64.279 64.279 64.279s64.279-28.778 64.279-64.279v0-511.516c-0.082-35.331-28.743-63.94-64.085-63.94-0.077 0-0.153 0-0.23 0h0.012zM301.194 288.636c-52.895 100.511 13.999 157.184 116.617 176.56v-64.908c0-0.083 0-0.18 0-0.278 0-15.744 3.297-30.717 9.239-44.268l-0.277 0.709c-115.866-36.814-106.227-104.628-125.602-67.815zM150.597 452.844c-55.995 106.566 114.34 190.607 267.214 219.913v-99.784c-202.693-41.173-246.893-158.638-267.238-120.129zM0.024 634.49c-12.473 119.402 236.455 217.975 417.786 250.43v-100.269c-236.164-46.017-413.233-193.998-417.81-150.161zM674.924 670.577c225.411-38.993 316.355-150.887 263.048-209.014-40.422-43.837-59.701 82.346-263.048 116.98v92.034z" />
<glyph unicode="&#xe912;" glyph-name="DisconnectionPolicy2_white" horiz-adv-x="1094" d="M1084.234 612.935c-36.014-48.923-159.703 126.91-409.309 173.896v94.456c262.975-47.228 463.391-194.725 409.309-268.352zM674.924 452.117c134.588-36.571 149.798-109.956 108.164-141.926-22.718-17.438-44.467 25.673-115.793 50.377 4.754 11.765 7.548 25.405 7.629 39.687v51.863zM539.998-63.758c-0.209-0.001-0.455-0.002-0.702-0.002-84.737 0-153.43 68.693-153.43 153.43s68.693 153.43 153.43 153.43c84.694 0 153.36-68.623 153.43-153.301v-0.007c0-0.108 0-0.236 0-0.364 0-84.408-68.268-152.871-152.601-153.187h-0.030zM546.367 320.363c-0.058 0-0.126 0-0.194 0-35.342 0-64.002 28.609-64.085 63.932v511.524c0 35.5 28.778 64.279 64.279 64.279s64.279-28.778 64.279-64.279v0-511.516c-0.082-35.331-28.743-63.94-64.085-63.94-0.077 0-0.153 0-0.23 0h0.012zM301.194 288.636c-52.895 100.511 13.999 157.184 116.617 176.56v-64.908c0-0.083 0-0.18 0-0.278 0-15.744 3.297-30.717 9.239-44.268l-0.277 0.709c-115.866-36.814-106.227-104.628-125.602-67.815zM150.597 452.844c-55.995 106.566 114.34 190.607 267.214 219.913v-99.784c-202.693-41.173-246.893-158.638-267.238-120.129zM0.024 634.49c-12.473 119.402 236.455 217.975 417.786 250.43v-100.269c-236.164-46.017-413.233-193.998-417.81-150.161zM674.924 670.577c225.411-38.993 316.355-150.887 263.048-209.014-40.422-43.837-59.701 82.346-263.048 116.98v92.034z" />
<glyph unicode="&#xe913;" horiz-adv-x="1434" d="M203.862 960h613.931c112.489-0.25 203.612-91.373 203.862-203.838v-613.955c-0.25-112.489-91.373-203.612-203.838-203.862h-613.955c-112.489 0.25-203.612 91.373-203.862 203.838v611.609c-0.003 0.415-0.005 0.905-0.005 1.395 0 112.783 91.159 204.274 203.815 204.812h0.051z" />
<glyph unicode="&#xe914;" horiz-adv-x="1434" d="M833.846 364.395c-26.048 18.334-42.858 48.272-42.858 82.136 0 22.589 7.48 43.431 20.098 60.185l-0.184-0.255c5.924 9.311 13.61 16.974 22.647 22.695l0.297 0.176 437.485 313.819c68.76 48.162 162.664 0 162.664-82.468v-625.366c0-0.029 0-0.064 0-0.098 0-56.437-45.751-102.187-102.187-102.187-22.754 0-43.772 7.437-60.754 20.013l0.277-0.196z" />
<glyph unicode="&#xe915;" glyph-name="DisconnectionPolicy3_green" horiz-adv-x="1023" d="M640.021 934.413v-187.753h187.753zM853.361 661.34v-85.319c-71.712-0.547-136.484-29.81-183.472-76.844l-8.391-8.391h-490.859v-85.487h405.372l-85.319-85.319h-320.052v-85.319h247.485c-55.453-93.876-42.618-213.34 29.866-298.66h-447.99v895.979c-0.012 0.655-0.019 1.427-0.019 2.2 0 69.499 56.34 125.84 125.84 125.84 0.774 0 1.546-0.007 2.316-0.021l-0.116 0.002h426.848v-298.66zM674.165 29.876c29.731-15.645 64.929-24.924 102.273-25.168h0.077l-16.779-16.779c-31.132-31.132-74.14-50.387-121.645-50.387-95.011 0-172.032 77.021-172.032 172.032 0 47.505 19.255 90.513 50.387 121.645l59.732 59.732c30.896 31.639 73.979 51.26 121.645 51.26s90.748-19.621 121.612-51.227l0.033-0.034-59.984-60.823c-34.145 34.145-89.598 34.145-119.464 0l-59.984-59.48c-33.557-34.145-33.557-89.598 0-119.464 15.413-14.823 36.396-23.952 59.511-23.952 12.431 0 24.245 2.64 34.912 7.391l-0.546-0.217zM913.093 136.505c-30.322-31.239-72.573-50.754-119.385-51.174l-0.079-0.001c-0.472-0.005-1.030-0.008-1.589-0.008-46.472 0-88.354 19.649-117.792 51.093l-0.083 0.090 59.732 60.068c34.145-34.145 89.598-34.145 119.464 0l59.732 59.732c34.145 34.145 34.145 89.598 0 119.464-15.434 14.805-36.426 23.921-59.546 23.921-12.416 0-24.217-2.629-34.879-7.36l0.549 0.217c-29.765 15.613-64.985 24.888-102.345 25.167l-0.089 0.001 16.779 16.779c30.896 31.639 73.979 51.26 121.645 51.26s90.748-19.621 121.612-51.227l0.033-0.034c64.010-68.205 59.732-170.639 0-238.928l-59.732-59.732z" />
<glyph unicode="&#xe916;" glyph-name="DisconnectionPolicy3_white" horiz-adv-x="1023" d="M640.021 934.413v-187.753h187.753zM853.361 661.34v-85.319c-71.712-0.547-136.484-29.81-183.472-76.844l-8.391-8.391h-490.859v-85.487h405.372l-85.319-85.319h-320.052v-85.319h247.485c-55.453-93.876-42.618-213.34 29.866-298.66h-447.99v895.979c-0.012 0.655-0.019 1.427-0.019 2.2 0 69.499 56.34 125.84 125.84 125.84 0.774 0 1.546-0.007 2.316-0.021l-0.116 0.002h426.848v-298.66zM674.165 29.876c29.731-15.645 64.929-24.924 102.273-25.168h0.077l-16.779-16.779c-31.132-31.132-74.14-50.387-121.645-50.387-95.011 0-172.032 77.021-172.032 172.032 0 47.505 19.255 90.513 50.387 121.645l59.732 59.732c30.896 31.639 73.979 51.26 121.645 51.26s90.748-19.621 121.612-51.227l0.033-0.034-59.984-60.823c-34.145 34.145-89.598 34.145-119.464 0l-59.984-59.48c-33.557-34.145-33.557-89.598 0-119.464 15.413-14.823 36.396-23.952 59.511-23.952 12.431 0 24.245 2.64 34.912 7.391l-0.546-0.217zM913.093 136.505c-30.322-31.239-72.573-50.754-119.385-51.174l-0.079-0.001c-0.472-0.005-1.030-0.008-1.589-0.008-46.472 0-88.354 19.649-117.792 51.093l-0.083 0.090 59.732 60.068c34.145-34.145 89.598-34.145 119.464 0l59.732 59.732c34.145 34.145 34.145 89.598 0 119.464-15.434 14.805-36.426 23.921-59.546 23.921-12.416 0-24.217-2.629-34.879-7.36l0.549 0.217c-29.765 15.613-64.985 24.888-102.345 25.167l-0.089 0.001 16.779 16.779c30.896 31.639 73.979 51.26 121.645 51.26s90.748-19.621 121.612-51.227l0.033-0.034c64.010-68.205 59.732-170.639 0-238.928l-59.732-59.732z" />
<glyph unicode="&#xe917;" horiz-adv-x="1434" d="M0 753.793c0.249 112.504 91.364 203.644 203.834 203.935h613.959c112.498-0.291 203.612-91.431 203.862-203.911v-613.955c-0.25-112.489-91.373-203.612-203.838-203.862h-613.955c-112.489 0.25-203.612 91.373-203.862 203.838v0.024z" />
<glyph unicode="&#xe918;" horiz-adv-x="1434" d="M698.672 403.32c14.553 9.223 24.074 25.243 24.074 43.487 0 10.223-2.99 19.749-8.143 27.749l0.122-0.203c-4.224 6.469-9.585 11.83-15.847 15.927l-0.207 0.127-261.186 162.591c-22.871 16.054-54.979 6.891-70.959-15.981-4.255-7.974-6.793-17.424-6.89-27.459v-327.631c0.247-27.754 22.68-50.187 50.41-50.434h0.024c10.065 0.145 19.507 2.677 27.827 7.053l-0.338-0.162c0 2.272 261.113 164.937 261.113 164.937z" />
<glyph unicode="&#xe919;" glyph-name="downloadapp2_green" horiz-adv-x="1365" d="M1365.333 78.126c0-78.28-63.459-141.739-141.739-141.739v0h-1081.34c-78.28 0-141.739 63.459-141.739 141.739v0c0 78.28 63.459 141.739 141.739 141.739v0h321.103c0.021 0 0.046 0 0.071 0 34.73 0 65.817-15.596 86.64-40.166l0.136-0.165 14.045-16.622h236.446l14.045 16.622c20.845 24.943 51.926 40.729 86.698 40.847h322.154c0 0 0.001 0 0.001 0 78.28 0 141.739-63.459 141.739-141.739 0-0.181 0-0.362-0.001-0.543v0.028zM463.358 334.158c0.018 0 0.039 0 0.060 0 57.812 0 110.579-21.595 150.677-57.159l-0.236 0.206h137.1c39.887 35.351 92.672 56.944 150.499 56.953h293.144c20.207-0.145 39.801-2.437 58.665-6.66l-1.841 0.346v347.905c-0.293 156.915-127.455 284.032-284.359 284.251h-229.767v-365.3l131.946 122.54c9.855 8.382 22.729 13.48 36.794 13.48 31.454 0 56.953-25.499 56.953-56.953 0-15.604-6.275-29.743-16.44-40.030l0.005 0.006-148.182-138.002c-29.893-29.553-71.009-47.809-116.389-47.809-0.396 0-0.791 0.001-1.187 0.004h0.061c-0.154-0.001-0.337-0.001-0.519-0.001-46.501 0-88.597 18.861-119.055 49.35l-0.002 0.002-147.151 136.456c-10.159 10.281-16.435 24.42-16.435 40.024 0 31.454 25.499 56.953 56.953 56.953 14.065 0 26.939-5.098 36.875-13.547l-0.081 0.067 131.946-122.54v365.3h-225.365c-157.041-0.22-284.289-127.467-284.509-284.488v-347.926c17.065 3.884 36.704 6.177 56.856 6.313l0.098 0.001h292.884z" />
<glyph unicode="&#xe91a;" glyph-name="downloadapp2_white" horiz-adv-x="1365" d="M1365.333 78.126c0-78.28-63.459-141.739-141.739-141.739v0h-1081.34c-78.28 0-141.739 63.459-141.739 141.739v0c0 78.28 63.459 141.739 141.739 141.739v0h321.103c0.021 0 0.046 0 0.071 0 34.73 0 65.817-15.596 86.64-40.166l0.136-0.165 14.045-16.622h236.446l14.045 16.622c20.845 24.943 51.926 40.729 86.698 40.847h322.154c0 0 0.001 0 0.001 0 78.28 0 141.739-63.459 141.739-141.739 0-0.181 0-0.362-0.001-0.543v0.028zM463.358 334.158c0.018 0 0.039 0 0.060 0 57.812 0 110.579-21.595 150.677-57.159l-0.236 0.206h137.1c39.887 35.351 92.672 56.944 150.499 56.953h293.144c20.207-0.145 39.801-2.437 58.665-6.66l-1.841 0.346v347.905c-0.293 156.915-127.455 284.032-284.359 284.251h-229.767v-365.3l131.946 122.54c9.855 8.382 22.729 13.48 36.794 13.48 31.454 0 56.953-25.499 56.953-56.953 0-15.604-6.275-29.743-16.44-40.030l0.005 0.006-148.182-138.002c-29.893-29.553-71.009-47.809-116.389-47.809-0.396 0-0.791 0.001-1.187 0.004h0.061c-0.154-0.001-0.337-0.001-0.519-0.001-46.501 0-88.597 18.861-119.055 49.35l-0.002 0.002-147.151 136.456c-10.159 10.281-16.435 24.42-16.435 40.024 0 31.454 25.499 56.953 56.953 56.953 14.065 0 26.939-5.098 36.875-13.547l-0.081 0.067 131.946-122.54v365.3h-225.365c-157.041-0.22-284.289-127.467-284.509-284.488v-347.926c17.065 3.884 36.704 6.177 56.856 6.313l0.098 0.001h292.884z" />
<glyph unicode="&#xe91b;" glyph-name="TV_white" horiz-adv-x="1437" d="M835.701 365.348c-26.106 18.375-42.953 48.379-42.953 82.319 0 22.639 7.496 43.528 20.142 60.319l-0.185-0.256c5.937 9.332 13.64 17.012 22.697 22.746l0.298 0.176 438.458 314.517c68.913 48.269 163.026 0 163.026-82.652v-626.757c0-0.029 0-0.064 0-0.099 0-56.562-45.853-102.415-102.415-102.415-22.805 0-43.869 7.454-60.889 20.058l0.277-0.196zM819.611 960h-615.296c-112.748-0.292-204.065-91.634-204.315-204.365v-615.32c0.25-112.739 91.576-204.065 204.291-204.315h615.32c112.739 0.25 204.065 91.576 204.315 204.291v615.32c-0.25 112.754-91.567 204.097-204.287 204.389h-0.028zM700.226 404.36s-261.694-163.026-261.694-165.303c-8-4.223-17.463-6.761-27.505-6.905l-0.046-0.001c-27.816 0.247-50.299 22.73-50.546 50.523v328.353c0.098 10.087 2.642 19.559 7.065 27.879l-0.159-0.328c16.016 22.922 48.195 32.106 71.117 16.016l261.767-162.953c6.483-4.234 11.856-9.606 15.962-15.883l0.127-0.207c5.042-7.815 8.038-17.361 8.038-27.607 0-18.284-9.542-34.34-23.918-43.459l-0.21-0.124z" />
<glyph unicode="&#xe91c;" d="M1012.824 706.926l-467.705 204.859c-9.089 5.517-19.884 9.171-31.441 10.163l-0.274 0.019h-1.755c-11.903-1.088-22.762-4.71-32.313-10.321l0.364 0.198c-0.468-0.348-1.013-0.627-1.6-0.809l-0.038-0.010-464.955-204.098c-7.749-3.222-13.099-10.728-13.107-19.484v-24.636c0-0.017 0-0.038 0-0.059 0-8.402 6.811-15.214 15.214-15.214 0 0 0 0 0 0h50.381c0.036 0 0.079 0 0.122 0 6.955 0 12.815-4.684 14.598-11.070l0.025-0.107c6.261-23.991 32.944-22.587 37.157-22.294h789.007c4.272-0.41 30.954-1.814 37.215 22.294 1.787 6.489 7.635 11.177 14.579 11.177 0.059 0 0.117 0 0.176-0.001h50.313c0 0 0 0 0 0 8.382 0 15.18 6.778 15.214 15.152v23.409c-0.027 0.368-0.043 0.796-0.043 1.229s0.016 0.861 0.046 1.286l-0.003-0.057c0.018 0.306 0.028 0.664 0.028 1.025 0 7.8-4.8 14.479-11.607 17.246l-0.125 0.045z" />
<glyph unicode="&#xe91d;" glyph-name="Earnings2_green" horiz-adv-x="939" d="M514.26 743.3c41.44 38.7 100.020 100.7 123.48 159.74 10.88 27.34-10.96 56.96-40.4 56.96h-256c-29.44 0-51.28-29.56-40.4-56.96 23.46-59.060 82-120.96 123.48-159.74-229.46-34.1-424.42-321.66-424.42-551.3 0.148-141.325 114.675-255.852 255.986-256h426.694c141.325 0.148 255.852 114.675 256 255.986v0.014c0 229.64-194.96 517.2-424.42 551.3zM411.48 372.86l129.86-21.62c56.361-9.502 98.76-57.942 98.76-116.285 0-0.118 0-0.235-0.001-0.353v0.018c-0.091-70.656-57.344-127.909-127.991-128h-0.009v-42.62c0-23.56-19.1-42.66-42.66-42.66s-42.66 19.1-42.66 42.66v0 42.62h-11.44c-47.101 0.092-88.24 25.53-110.513 63.398l-0.327 0.602c-3.38 5.972-5.372 13.116-5.372 20.724 0 23.56 19.1 42.66 42.66 42.66 15.435 0 28.956-8.197 36.446-20.476l0.106-0.188c7.555-12.827 21.284-21.306 36.995-21.34h96.765c23.551 0.034 42.635 19.111 42.68 42.656v0.004c0 0.012 0 0.027 0 0.041 0 16.222-11.776 29.693-27.246 32.332l-0.194 0.027-129.8 21.62c-56.361 9.502-98.76 57.942-98.76 116.285 0 0.118 0 0.235 0.001 0.353v-0.018c0.091 70.656 57.344 127.909 127.991 128h0.009v42.7c0 23.56 19.1 42.66 42.66 42.66s42.66-19.1 42.66-42.66v0-42.66h11.44c47.096-0.109 88.228-25.541 110.513-63.398l0.327-0.602c3.836-6.276 6.108-13.871 6.108-21.996 0-23.56-19.1-42.66-42.66-42.66-15.952 0-29.859 8.755-37.177 21.723l-0.111 0.213c-7.56 12.874-21.337 21.38-37.1 21.38h-96.76c-23.558-0.034-42.646-19.122-42.68-42.677v-0.003c0-0.021 0-0.046 0-0.071 0-16.232 11.798-29.709 27.287-32.322l0.193-0.027z" />
<glyph unicode="&#xe91e;" glyph-name="Earnings2_white" horiz-adv-x="939" d="M514.26 743.3c41.44 38.7 100.020 100.7 123.48 159.74 10.88 27.34-10.96 56.96-40.4 56.96h-256c-29.44 0-51.28-29.56-40.4-56.96 23.46-59.060 82-120.96 123.48-159.74-229.46-34.1-424.42-321.66-424.42-551.3 0.148-141.325 114.675-255.852 255.986-256h426.694c141.325 0.148 255.852 114.675 256 255.986v0.014c0 229.64-194.96 517.2-424.42 551.3zM411.48 372.86l129.86-21.62c56.361-9.502 98.76-57.942 98.76-116.285 0-0.118 0-0.235-0.001-0.353v0.018c-0.091-70.656-57.344-127.909-127.991-128h-0.009v-42.62c0-23.56-19.1-42.66-42.66-42.66s-42.66 19.1-42.66 42.66v0 42.62h-11.44c-47.101 0.092-88.24 25.53-110.513 63.398l-0.327 0.602c-3.38 5.972-5.372 13.116-5.372 20.724 0 23.56 19.1 42.66 42.66 42.66 15.435 0 28.956-8.197 36.446-20.476l0.106-0.188c7.555-12.827 21.284-21.306 36.995-21.34h96.765c23.551 0.034 42.635 19.111 42.68 42.656v0.004c0 0.012 0 0.027 0 0.041 0 16.222-11.776 29.693-27.246 32.332l-0.194 0.027-129.8 21.62c-56.361 9.502-98.76 57.942-98.76 116.285 0 0.118 0 0.235 0.001 0.353v-0.018c0.091 70.656 57.344 127.909 127.991 128h0.009v42.7c0 23.56 19.1 42.66 42.66 42.66s42.66-19.1 42.66-42.66v0-42.66h11.44c47.096-0.109 88.228-25.541 110.513-63.398l0.327-0.602c3.836-6.276 6.108-13.871 6.108-21.996 0-23.56-19.1-42.66-42.66-42.66-15.952 0-29.859 8.755-37.177 21.723l-0.111 0.213c-7.56 12.874-21.337 21.38-37.1 21.38h-96.76c-23.558-0.034-42.646-19.122-42.68-42.677v-0.003c0-0.021 0-0.046 0-0.071 0-16.232 11.798-29.709 27.287-32.322l0.193-0.027z" />
<glyph unicode="&#xe91f;" d="M979.295 65.726h-932.835c-35.811 0-35.109-35.109-35.109-35.109v-43.359c0 0 0 0 0 0 0-8.414 6.804-15.239 15.211-15.272h972.393c8.401 0.033 15.206 6.818 15.272 15.207v43.365s0.995 35.109-35.109 35.109z" />
<glyph unicode="&#xe920;" d="M147.573 562.864v-394.503h-39.907c-29.257 0-33.587-27.97-34.114-33.353 0-0.527 0-1.053 0-1.404v-17.554c0-0.017 0-0.038 0-0.059 0-8.382 6.778-15.18 15.152-15.214h850.040c0.017 0 0.038 0 0.059 0 8.402 0 15.214 6.811 15.214 15.214 0 0 0 0 0 0v0 17.554c0.042 0.211 0.065 0.454 0.065 0.702s-0.024 0.491-0.069 0.726l0.004-0.024c-0.527 5.383-4.564 33.353-34.114 33.353h-39.907v394.562c0 0 0 0 0 0 0 8.393-6.771 15.205-15.149 15.272h-98.251c-0.017 0-0.038 0-0.059 0-8.402 0-15.214-6.811-15.214-15.214 0 0 0 0 0 0v0-394.503h-78.234v394.445c0 0 0 0 0 0 0 8.414-6.804 15.239-15.211 15.272h-97.312c-0.017 0-0.038 0-0.059 0-8.402 0-15.214-6.811-15.214-15.214 0 0 0 0 0 0v0-395.264h-63.547v395.205c0 0.035 0 0.076 0 0.117 0 8.37-6.785 15.155-15.155 15.155 0 0 0 0-0.001 0h-97.309c-8.326-0.099-15.038-6.872-15.038-15.213 0 0 0-0.001 0-0.001v0-394.503h-78.526v394.445c0 0.035 0 0.076 0 0.117 0 8.35-6.752 15.122-15.094 15.155h-97.429c-0.105 0.003-0.229 0.004-0.354 0.004-8.333 0-15.108-6.674-15.269-14.969v-0.015z" />
<glyph unicode="&#xe921;" glyph-name="English2_green" horiz-adv-x="1195" d="M1040.752 960.154h-886.247c-85.337-0.029-154.504-69.215-154.504-154.555 0-0.036 0-0.072 0-0.108v0.006-614.994c0.029-85.29 69.163-154.424 154.45-154.453h279.248l142.824-91.34c5.434-5.394 12.919-8.727 21.183-8.727s15.749 3.333 21.185 8.729l-0.002-0.002 134.167 82.529c5.372 5.441 12.83 8.812 21.076 8.812 0.065 0 0.129 0 0.194-0.001h266.633c85.29 0.029 154.424 69.163 154.453 154.45v614.741c0 0.076 0 0.166 0 0.256 0 85.415-69.243 154.658-154.658 154.658 0 0 0 0 0 0v0zM529.085 310.222c-8.449-7.005-19.401-11.255-31.347-11.255-1.029 0-2.051 0.032-3.064 0.094l0.139-0.007h-211.367c-19.569 0-34.272 4.713-43.544 14.19s-14.037 24.128-14.037 43.39v288.517c-0.017 0.601-0.026 1.308-0.026 2.017 0 10.719 2.195 20.926 6.159 30.195l-0.191-0.501c4.080 9.207 11.284 16.412 20.239 20.391l0.252 0.1c8.675 3.644 18.757 5.761 29.334 5.761 0.673 0 1.345-0.009 2.014-0.026l-0.099 0.002h204.913c15.010 0 26.485-3.535 34.272-10.809 7.618-7.377 12.347-17.698 12.347-29.123s-4.729-21.746-12.336-29.113l-0.011-0.010c-7.94-7.274-19.569-10.809-34.272-10.809h-165.006v-74.127h151.072c0.917 0.062 1.988 0.097 3.066 0.097 11.554 0 22.161-4.056 30.474-10.823l-0.088 0.070c7.48-6.836 12.155-16.635 12.155-27.525 0-0.355-0.005-0.709-0.015-1.061l0.001 0.052c0.009-0.314 0.014-0.682 0.014-1.052 0-10.857-4.521-20.658-11.784-27.623l-0.013-0.013c-7.633-7.428-18.954-10.963-33.606-10.963h-151.123v-88.983h171.051c14.856 0 26.331-3.74 34.272-11.168 7.683-7.199 12.469-17.408 12.469-28.735 0-0.452-0.008-0.902-0.023-1.35l0.002 0.065c0.035-0.606 0.055-1.315 0.055-2.028 0-11.025-4.752-20.941-12.318-27.81l-0.031-0.028zM920.058 292.651c-0.533-0.018-1.16-0.028-1.79-0.028-14.921 0-28.523 5.65-38.781 14.928l0.050-0.044c-5.453 5.009-10.333 10.475-14.638 16.386l-0.218 0.314c-4.201 5.891-8.248 11.834-12.5 17.879l-125.253 191.952v-187.7c0-16.905-4.201-30.225-12.5-39.343-7.864-8.738-19.212-14.209-31.838-14.209-0.441 0-0.881 0.007-1.319 0.020l0.064-0.002c-0.407-0.014-0.885-0.022-1.365-0.022-12.788 0-24.249 5.687-31.99 14.67l-0.046 0.055c-8.094 9.272-12.141 22.438-12.141 39.138v290.771c-0.046 1.081-0.073 2.348-0.073 3.622 0 10.366 1.752 20.323 4.977 29.591l-0.191-0.632c4.333 9.958 11.342 18.072 20.124 23.643l0.214 0.127c8.487 5.495 18.861 8.761 29.998 8.761 7.658 0 14.955-1.544 21.597-4.339l-0.367 0.137c6.102-2.796 11.312-6.481 15.721-10.956l0.006-0.006c4.601-4.828 8.715-10.197 12.216-15.979l0.233-0.414c3.893-6.25 7.94-12.5 11.987-18.75l128.685-194.667v191.491c0 16.854 4.047 30.173 11.782 39.292 7.625 8.821 18.83 14.37 31.331 14.37 0.512 0 1.021-0.009 1.529-0.028l-0.073 0.002c0.537 0.025 1.168 0.039 1.801 0.039 12.586 0 23.876-5.549 31.558-14.334l0.042-0.049c7.94-9.119 11.987-22.438 11.987-39.292v-296.816c0-22.131-6.557-59.578-51.228-59.578z" />
<glyph unicode="&#xe922;" glyph-name="English2_white" horiz-adv-x="1195" d="M1040.752 960.154h-886.247c-85.337-0.029-154.504-69.215-154.504-154.555 0-0.036 0-0.072 0-0.108v0.006-614.994c0.029-85.29 69.163-154.424 154.45-154.453h279.248l142.824-91.34c5.434-5.394 12.919-8.727 21.183-8.727s15.749 3.333 21.185 8.729l-0.002-0.002 134.167 82.529c5.372 5.441 12.83 8.812 21.076 8.812 0.065 0 0.129 0 0.194-0.001h266.633c85.29 0.029 154.424 69.163 154.453 154.45v614.741c0 0.076 0 0.166 0 0.256 0 85.415-69.243 154.658-154.658 154.658 0 0 0 0 0 0v0zM529.085 310.222c-8.449-7.005-19.401-11.255-31.347-11.255-1.029 0-2.051 0.032-3.064 0.094l0.139-0.007h-211.367c-19.569 0-34.272 4.713-43.544 14.19s-14.037 24.128-14.037 43.39v288.517c-0.017 0.601-0.026 1.308-0.026 2.017 0 10.719 2.195 20.926 6.159 30.195l-0.191-0.501c4.080 9.207 11.284 16.412 20.239 20.391l0.252 0.1c8.675 3.644 18.757 5.761 29.334 5.761 0.673 0 1.345-0.009 2.014-0.026l-0.099 0.002h204.913c15.010 0 26.485-3.535 34.272-10.809 7.618-7.377 12.347-17.698 12.347-29.123s-4.729-21.746-12.336-29.113l-0.011-0.010c-7.94-7.274-19.569-10.809-34.272-10.809h-165.006v-74.127h151.072c0.917 0.062 1.988 0.097 3.066 0.097 11.554 0 22.161-4.056 30.474-10.823l-0.088 0.070c7.48-6.836 12.155-16.635 12.155-27.525 0-0.355-0.005-0.709-0.015-1.061l0.001 0.052c0.009-0.314 0.014-0.682 0.014-1.052 0-10.857-4.521-20.658-11.784-27.623l-0.013-0.013c-7.633-7.428-18.954-10.963-33.606-10.963h-151.123v-88.983h171.051c14.856 0 26.331-3.74 34.272-11.168 7.683-7.199 12.469-17.408 12.469-28.735 0-0.452-0.008-0.902-0.023-1.35l0.002 0.065c0.035-0.606 0.055-1.315 0.055-2.028 0-11.025-4.752-20.941-12.318-27.81l-0.031-0.028zM920.058 292.651c-0.533-0.018-1.16-0.028-1.79-0.028-14.921 0-28.523 5.65-38.781 14.928l0.050-0.044c-5.453 5.009-10.333 10.475-14.638 16.386l-0.218 0.314c-4.201 5.891-8.248 11.834-12.5 17.879l-125.253 191.952v-187.7c0-16.905-4.201-30.225-12.5-39.343-7.864-8.738-19.212-14.209-31.838-14.209-0.441 0-0.881 0.007-1.319 0.020l0.064-0.002c-0.407-0.014-0.885-0.022-1.365-0.022-12.788 0-24.249 5.687-31.99 14.67l-0.046 0.055c-8.094 9.272-12.141 22.438-12.141 39.138v290.771c-0.046 1.081-0.073 2.348-0.073 3.622 0 10.366 1.752 20.323 4.977 29.591l-0.191-0.632c4.333 9.958 11.342 18.072 20.124 23.643l0.214 0.127c8.487 5.495 18.861 8.761 29.998 8.761 7.658 0 14.955-1.544 21.597-4.339l-0.367 0.137c6.102-2.796 11.312-6.481 15.721-10.956l0.006-0.006c4.601-4.828 8.715-10.197 12.216-15.979l0.233-0.414c3.893-6.25 7.94-12.5 11.987-18.75l128.685-194.667v191.491c0 16.854 4.047 30.173 11.782 39.292 7.625 8.821 18.83 14.37 31.331 14.37 0.512 0 1.021-0.009 1.529-0.028l-0.073 0.002c0.537 0.025 1.168 0.039 1.801 0.039 12.586 0 23.876-5.549 31.558-14.334l0.042-0.049c7.94-9.119 11.987-22.438 11.987-39.292v-296.816c0-22.131-6.557-59.578-51.228-59.578z" />
<glyph unicode="&#xe923;" d="M248.242 960h527.515c137.101 0 248.242-111.142 248.242-248.242v-527.515c0-137.101-111.142-248.242-248.242-248.242h-527.515c-137.101 0-248.242 111.142-248.242 248.242v527.515c0 137.101 111.142 248.242 248.242 248.242z" />
<glyph unicode="&#xe924;" d="M532.651 712.378c-104.588 0-160.194-63.457-158.255-142.895h106.574c-0.121 1.258-0.191 2.719-0.191 4.196 0 25.552 20.714 46.266 46.266 46.266 1.487 0 2.958-0.070 4.41-0.207l-0.185 0.014c0.925 0.068 2.004 0.107 3.093 0.107 24.704 0 44.73-20.026 44.73-44.73 0-1.332-0.058-2.651-0.172-3.953l0.012 0.169c0.667-48.252-42.356-59.578-104.588-59.578h-39.719l3.305-123.035h99.297l3.305 49.648c86.714 0.621 148.263 47.011 148.263 132.344 0.078 92.005-64.14 141.653-156.144 141.653zM488.96 216.669c31.559 3.034 56.037 29.415 56.037 61.514 0 34.121-27.66 61.781-61.781 61.781s-61.781-27.66-61.781-61.781c0-0.244 0.001-0.488 0.004-0.731v0.037c0-33.823 27.136-60.819 67.522-60.819z" />
<glyph unicode="&#xe925;" glyph-name="FAQ2_green" d="M512 960c-328.893-2.021-512-187.015-512-512.943 0-318.518 183.107-509.171 512-511.057 333.339 2.021 505.533 173.945 512 512.808-5.659 327.545-187.419 509.036-512 511.192zM512 122.206c-38.472 0-69.659 31.187-69.659 69.659s31.187 69.659 69.659 69.659c38.424 0 69.582-31.111 69.659-69.517v-0.007c0-0.080 0.001-0.175 0.001-0.27 0-38.397-31.127-69.524-69.524-69.524-0.048 0-0.095 0-0.143 0h0.007zM558.484 407.579v-30.316c0-25.673-20.812-46.484-46.484-46.484s-46.484 20.812-46.484 46.484v0 72.354c0 0.040 0 0.087 0 0.135 0 25.673 20.812 46.484 46.484 46.484 0 0 0 0 0 0v0c69.255 0 96.741 28.025 98.088 98.627-1.482 66.964-30.72 96.472-98.088 96.876s-96.606-28.968-97.819-98.627c-1.381-25.261-22.003-45.273-47.388-45.675h-0.039c-25.327 0.449-45.685 21.086-45.685 46.477 0 0.334 0.004 0.667 0.011 1l-0.001-0.050c2.291 120.051 71.68 189.305 190.922 189.979s188.632-71.815 190.922-189.979c-2.291-106.442-52.817-171.655-144.438-187.284z" />
<glyph unicode="&#xe926;" glyph-name="FAQ2_white" d="M512 960c-328.893-2.021-512-187.015-512-512.943 0-318.518 183.107-509.171 512-511.057 333.339 2.021 505.533 173.945 512 512.808-5.659 327.545-187.419 509.036-512 511.192zM512 122.206c-38.472 0-69.659 31.187-69.659 69.659s31.187 69.659 69.659 69.659c38.424 0 69.582-31.111 69.659-69.517v-0.007c0-0.080 0.001-0.175 0.001-0.27 0-38.397-31.127-69.524-69.524-69.524-0.048 0-0.095 0-0.143 0h0.007zM558.484 407.579v-30.316c0-25.673-20.812-46.484-46.484-46.484s-46.484 20.812-46.484 46.484v0 72.354c0 0.040 0 0.087 0 0.135 0 25.673 20.812 46.484 46.484 46.484 0 0 0 0 0 0v0c69.255 0 96.741 28.025 98.088 98.627-1.482 66.964-30.72 96.472-98.088 96.876s-96.606-28.968-97.819-98.627c-1.381-25.261-22.003-45.273-47.388-45.675h-0.039c-25.327 0.449-45.685 21.086-45.685 46.477 0 0.334 0.004 0.667 0.011 1l-0.001-0.050c2.291 120.051 71.68 189.305 190.922 189.979s188.632-71.815 190.922-189.979c-2.291-106.442-52.817-171.655-144.438-187.284z" />
<glyph unicode="&#xe927;" d="M248.242 960h527.515c137.101 0 248.242-111.142 248.242-248.242v-527.515c0-137.101-111.142-248.242-248.242-248.242h-527.515c-137.101 0-248.242 111.142-248.242 248.242v527.515c0 137.101 111.142 248.242 248.242 248.242z" />
<glyph unicode="&#xe928;" d="M669.494 286.953l7.618-110.623-103.641 66.715c-19.633-4.904-42.178-7.731-65.379-7.758h-0.017c-139.311 0-252.245 99.607-252.245 222.642s112.935 222.642 252.245 222.642 252.245-99.762 252.245-222.642c-1.175-70.569-36.516-132.641-90.157-170.529l-0.668-0.448zM473.895 316.121l12.645-12.412h38.788l17.16 16.756v27.617l-15.36 15.050h-46.002l-7.23-12.412v-34.599zM607.558 540.936c-9.93 47.166-68.639 64.078-68.639 64.078h-57.794c-56.894-15.205-78.569-75.559-78.569-75.559-7.23-62.216 49.648-30.255 49.648-30.255 3.248 22.091 14.075 41.202 29.706 54.994l0.098 0.085c8.064 6.673 18.513 10.722 29.907 10.722 17.168 0 32.189-9.19 40.412-22.92l0.119-0.214v-32.892l-71.37-64.853v-50.735h45.149v15.981c0.9 15.205 81.284 84.558 81.284 84.558v47.011z" />
<glyph unicode="&#xe929;" glyph-name="FAQ3_green" horiz-adv-x="1126" d="M1024 960h-921.582c-56.486-0.139-102.244-45.875-102.418-102.34v-614.405c0.174-56.494 45.924-102.244 102.402-102.418h35.836c-40.918-122.878-61.439-189.416-61.439-189.416s97.319 61.439 291.834 189.416h102.418c-9.75 29.725-15.373 63.936-15.373 99.461 0 1.040 0.005 2.079 0.014 3.116l-0.001-0.159c-0.004 0.604-0.006 1.318-0.006 2.033 0 196.804 159.541 356.345 356.345 356.345 0.715 0 1.43-0.002 2.144-0.006l-0.11 0.001c129.513-1.164 242.733-69.84 306.296-172.499l0.898-1.557v430.071c5.161 56.278-40.918 102.357-97.258 102.357zM368.633 468.49h-225.235c-21.989 1.532-39.448 18.991-40.972 40.841l-0.008 0.139c1.532 21.989 18.991 39.448 40.841 40.972l0.139 0.008h225.235c21.989-1.532 39.448-18.991 40.972-40.841l0.008-0.139c-1.532-21.989-18.991-39.448-40.841-40.972l-0.139-0.008zM983.020 724.505h-839.622c-22.001 1.505-39.475 18.979-40.972 40.843l-0.007 0.136c1.535 21.975 18.999 39.417 40.844 40.911l0.136 0.007h839.622c21.981-1.501 39.445-18.944 40.972-40.78l0.008-0.139c-1.505-22.001-18.979-39.475-40.843-40.972l-0.136-0.007zM819.225-63.939c-169.658 0-307.194 137.535-307.194 307.194s137.535 307.194 307.194 307.194c169.658 0 307.194-137.535 307.194-307.194v0c-0.522-169.448-137.746-306.672-307.144-307.194h-0.050zM844.783 145.936c0 20.521 0 35.88 5.161 46.079s15.36 20.521 30.719 35.88q46.079 38.338 61.439 61.439c9.625 13.774 15.38 30.872 15.38 49.314 0 0.655-0.007 1.309-0.022 1.961l0.002-0.097c-0.712 33.223-16.489 62.62-40.751 81.725l-0.228 0.173c-28.38 22.391-64.662 35.915-104.103 35.915-1.201 0-2.399-0.013-3.593-0.037l0.178 0.003c-40.98 0-76.798-10.26-102.418-35.88s-40.918-51.178-40.918-86.997l71.638-10.26c3.306 20.077 12.466 37.598 25.644 51.204l-0.024-0.025c14.415 9.628 32.142 15.365 51.209 15.365s36.794-5.737 51.549-15.578l-0.34 0.213c12.449-8.461 20.52-22.557 20.52-38.538 0-0.837-0.022-1.67-0.066-2.496l0.005 0.115c-1.13-11.493-4.8-21.934-10.438-31.027l0.178 0.307c-12.507-12.674-25.861-24.43-39.999-35.208l-0.919-0.672c-25.62-20.459-40.98-35.819-46.079-51.178-10.26-15.36-10.26-35.819-10.26-56.339v-20.459h66.538zM773.145 38.418h76.798v76.798h-76.798z" />
<glyph unicode="&#xe92a;" glyph-name="FAQ3_white" horiz-adv-x="1126" d="M1024 960h-921.582c-56.486-0.139-102.244-45.875-102.418-102.34v-614.405c0.174-56.494 45.924-102.244 102.402-102.418h35.836c-40.918-122.878-61.439-189.416-61.439-189.416s97.319 61.439 291.834 189.416h102.418c-9.75 29.725-15.373 63.936-15.373 99.461 0 1.040 0.005 2.079 0.014 3.116l-0.001-0.159c-0.004 0.604-0.006 1.318-0.006 2.033 0 196.804 159.541 356.345 356.345 356.345 0.715 0 1.43-0.002 2.144-0.006l-0.11 0.001c129.513-1.164 242.733-69.84 306.296-172.499l0.898-1.557v430.071c5.161 56.278-40.918 102.357-97.258 102.357zM368.633 468.49h-225.235c-21.989 1.532-39.448 18.991-40.972 40.841l-0.008 0.139c1.532 21.989 18.991 39.448 40.841 40.972l0.139 0.008h225.235c21.989-1.532 39.448-18.991 40.972-40.841l0.008-0.139c-1.532-21.989-18.991-39.448-40.841-40.972l-0.139-0.008zM983.020 724.505h-839.622c-22.001 1.505-39.475 18.979-40.972 40.843l-0.007 0.136c1.535 21.975 18.999 39.417 40.844 40.911l0.136 0.007h839.622c21.981-1.501 39.445-18.944 40.972-40.78l0.008-0.139c-1.505-22.001-18.979-39.475-40.843-40.972l-0.136-0.007zM819.225-63.939c-169.658 0-307.194 137.535-307.194 307.194s137.535 307.194 307.194 307.194c169.658 0 307.194-137.535 307.194-307.194v0c-0.522-169.448-137.746-306.672-307.144-307.194h-0.050zM844.783 145.936c0 20.521 0 35.88 5.161 46.079s15.36 20.521 30.719 35.88q46.079 38.338 61.439 61.439c9.625 13.774 15.38 30.872 15.38 49.314 0 0.655-0.007 1.309-0.022 1.961l0.002-0.097c-0.712 33.223-16.489 62.62-40.751 81.725l-0.228 0.173c-28.38 22.391-64.662 35.915-104.103 35.915-1.201 0-2.399-0.013-3.593-0.037l0.178 0.003c-40.98 0-76.798-10.26-102.418-35.88s-40.918-51.178-40.918-86.997l71.638-10.26c3.306 20.077 12.466 37.598 25.644 51.204l-0.024-0.025c14.415 9.628 32.142 15.365 51.209 15.365s36.794-5.737 51.549-15.578l-0.34 0.213c12.449-8.461 20.52-22.557 20.52-38.538 0-0.837-0.022-1.67-0.066-2.496l0.005 0.115c-1.13-11.493-4.8-21.934-10.438-31.027l0.178 0.307c-12.507-12.674-25.861-24.43-39.999-35.208l-0.919-0.672c-25.62-20.459-40.98-35.819-46.079-51.178-10.26-15.36-10.26-35.819-10.26-56.339v-20.459h66.538zM773.145 38.418h76.798v76.798h-76.798z" />
<glyph unicode="&#xe92b;" glyph-name="bank_white" d="M1012.824 706.926l-467.705 204.859c-9.085 5.53-19.884 9.187-31.446 10.163l-0.269 0.018h-1.755c-11.862-1.098-22.681-4.719-32.193-10.32l0.362 0.197c-0.468-0.348-1.013-0.627-1.6-0.809l-0.038-0.010-465.072-204.098c-7.749-3.222-13.099-10.728-13.107-19.484v-24.636c0-0.035 0-0.076 0-0.117 0-8.37 6.785-15.155 15.155-15.155 0 0 0 0 0.001 0h50.439c0.050 0.001 0.108 0.001 0.167 0.001 6.944 0 12.792-4.688 14.554-11.071l0.025-0.106c6.261-23.991 32.944-22.587 37.157-22.294h789.007c4.272-0.41 30.954-1.814 37.215 22.294 1.787 6.489 7.635 11.177 14.579 11.177 0.059 0 0.117 0 0.176-0.001h50.313c8.369 0.033 15.148 6.791 15.214 15.149v23.412c-0.028 0.368-0.044 0.796-0.044 1.229s0.016 0.861 0.047 1.286l-0.003-0.057c0.018 0.306 0.028 0.664 0.028 1.025 0 7.8-4.8 14.479-11.607 17.246l-0.125 0.045zM979.295 65.726h-932.835c-35.811 0-35.109-35.109-35.109-35.109v-43.359c0 0 0 0 0 0 0-8.414 6.804-15.239 15.211-15.272h972.393c8.401 0.033 15.206 6.818 15.272 15.207v43.365s0.995 35.109-35.109 35.109zM147.573 562.864v-394.503h-39.907c-29.257 0-33.587-27.97-34.114-33.353v-18.959c0-0.035 0-0.076 0-0.117 0-8.37 6.785-15.155 15.155-15.155 0 0 0 0 0.001 0h850.037c0.035 0 0.076 0 0.117 0 8.37 0 15.155 6.785 15.155 15.155 0 0 0 0 0 0.001v0 17.554c0.027 0.211 0.042 0.455 0.042 0.702s-0.015 0.491-0.045 0.731l0.003-0.029c-0.527 5.383-4.564 33.353-34.114 33.353h-39.907v394.62c0 0 0 0 0 0 0 8.393-6.771 15.205-15.149 15.272h-98.31c-0.035 0-0.076 0-0.117 0-8.37 0-15.155-6.785-15.155-15.155 0 0 0 0 0-0.001v0-394.503h-78.351v394.386c0 0 0 0 0 0 0 8.414-6.804 15.239-15.211 15.272h-97.137c-0.035 0-0.076 0-0.117 0-8.37 0-15.155-6.785-15.155-15.155 0 0 0 0 0-0.001v0-395.264h-63.547v395.147c0 0.035 0 0.076 0 0.117 0 8.329-6.719 15.089-15.032 15.155h-97.432c-8.314-0.131-15.006-6.886-15.038-15.211v-394.506h-78.526v394.445c0 0.035 0 0.076 0 0.117 0 8.329-6.719 15.089-15.032 15.155h-97.491c-0.106 0.003-0.23 0.004-0.355 0.004-8.313 0-15.074-6.641-15.268-14.907v-0.018z" />
<glyph unicode="&#xe92c;" glyph-name="Home2_green" horiz-adv-x="1047" d="M34.056 571.594l425.697 364.907c16.958 14.608 39.197 23.503 63.514 23.503s46.556-8.896 63.641-23.611l-0.127 0.107 425.697-364.907c20.845-17.932 33.985-44.318 34.056-73.775v-464.306c0-53.886-43.683-97.57-97.57-97.57v0h-189.18c-53.886 0-97.57 43.683-97.57 97.57v0 177.374c0 24.482-19.847 44.329-44.329 44.329v0h-189.237c-24.482 0-44.329-19.847-44.329-44.329v0-177.374c0-53.886-43.683-97.57-97.57-97.57v0h-189.18c-53.886 0-97.57 43.683-97.57 97.57v0 464.010c0 0.017 0 0.037 0 0.057 0 29.553 13.154 56.034 33.928 73.906l0.128 0.108z" />
<glyph unicode="&#xe92d;" glyph-name="Home2_white" horiz-adv-x="1047" d="M34.056 571.594l425.697 364.907c16.958 14.608 39.197 23.503 63.514 23.503s46.556-8.896 63.641-23.611l-0.127 0.107 425.697-364.907c20.845-17.932 33.985-44.318 34.056-73.775v-464.306c0-53.886-43.683-97.57-97.57-97.57v0h-189.18c-53.886 0-97.57 43.683-97.57 97.57v0 177.374c0 24.482-19.847 44.329-44.329 44.329v0h-189.237c-24.482 0-44.329-19.847-44.329-44.329v0-177.374c0-53.886-43.683-97.57-97.57-97.57v0h-189.18c-53.886 0-97.57 43.683-97.57 97.57v0 464.010c0 0.017 0 0.037 0 0.057 0 29.553 13.154 56.034 33.928 73.906l0.128 0.108z" />
<glyph unicode="&#xe92e;" d="M891.085 776.755h-744.653l-77.67-666.265h281.907l70.4 116.326h186.111l70.4-116.326h291.174z" />
<glyph unicode="&#xe92f;" d="M891.085 776.755h-744.653l-64.717-555.11h874.087z" />
<glyph unicode="&#xe930;" d="M694.17 386.355c-61.645 0-111.821 50.176-111.821 111.821s50.176 111.82 111.82 111.82 111.821-50.175 111.821-111.82-50.176-111.82-111.82-111.82zM694.17 538.368c-22.17 0-40.141-18.022-40.141-40.14s18.022-40.142 40.14-40.142 40.141 18.023 40.141 40.141-18.022 40.141-40.14 40.141zM440.832 534.016h-59.034v59.034h-71.68v-59.034h-59.033v-71.68h59.033v-59.034h71.68v59.034h59.034z" />
<glyph unicode="&#xe931;" d="M896-26.074h-768c-70.684 0-128 65.327-128 145.873v437.618c0.031 22.106 4.524 43.154 12.627 62.304l-0.396-1.053 319.621-216.083c-0.474-0.521-1.185-0.759-1.707-1.327l-129.043-146.963c-5.526-6.587-8.882-15.156-8.882-24.51s3.356-17.922 8.93-24.569l-0.048 0.059c5.159-6.209 12.883-10.134 21.523-10.134s16.364 3.924 21.486 10.088l0.037 0.046 128.996 146.963c3.51 5.059 5.743 11.243 6.112 17.924l0.004 0.091 147.2-99.556c0.853-0.569 1.754-0.569 2.655-1.090 2.329-1.447 5.048-2.535 7.953-3.104l0.153-0.025c1.487-0.332 3.195-0.522 4.948-0.522 0.061 0 0.121 0 0.182 0.001h-0.009c0.659-0.045 1.429-0.071 2.204-0.071s1.545 0.026 2.308 0.077l-0.103-0.006c8.442 1.248 15.654 5.722 20.47 12.105l0.057 0.079 89.126 66.37 124.397-141.796c5.256-6.36 13.145-10.382 21.973-10.382s16.718 4.022 21.935 10.334l0.038 0.048c5.662 6.72 9.102 15.474 9.102 25.031s-3.44 18.311-9.151 25.090l0.048-0.059-115.2 131.271 305.114 226.892c5.788-15.923 9.199-34.303 9.339-53.46v-437.681c0-80.545-57.316-145.873-128-145.873z" />
<glyph unicode="&#xe932;" d="M57.6 678.921c19.256 15.016 43.741 24.151 70.351 24.367h0.049v72.913c0 80.545 57.316 145.873 128 145.873h512c70.684 0 128-65.327 128-145.873v-72.913c30.289-0.413 57.744-12.217 78.346-31.311l-0.076 0.070-431.787-320.901z" />
<glyph unicode="&#xe933;" d="M672 776.201h-320c-17.683 0-32-16.308-32-36.456s14.222-36.456 32-36.456h320c17.683 0 32 16.308 32 36.456s-14.317 36.456-32 36.456z" />
<glyph unicode="&#xe934;" d="M704 593.873c0 20.148-14.222 36.456-32 36.456h-320c-17.683 0-32-16.356-32-36.456s14.222-36.456 32-36.456h320c17.683 0 32 16.308 32 36.456z" />
<glyph unicode="&#xe935;" glyph-name="privacyPolicy2_green" horiz-adv-x="1023" d="M511.705 661.538v278.485c41.030-15.733 76.056-38.774 105.097-67.802l148.59-148.689c28.964-28.917 51.993-63.769 67.106-102.578l0.694-2.026h-278.879c-23.532 0-42.609 19.077-42.609 42.609v0zM475.492 149.834h-262.249c-0.030 0-0.064 0-0.099 0-23.429 0-42.441 18.909-42.608 42.298v0.016c0 23.587 19.121 42.708 42.708 42.708v0h255.852v85.219h-255.852c-23.587 0-42.708 19.121-42.708 42.708v0c-0.001 0.088-0.001 0.191-0.001 0.295 0 23.532 19.077 42.609 42.609 42.609 0.035 0 0.070 0 0.105 0h257.225c7.499 55.667 40.997 102.177 87.667 127.481l0.897 0.445h-4.428c-70.652 0-127.926 57.275-127.926 127.926v0 297.478c-6.79 0.492-13.678 0.984-20.665 0.984h-192.775c-117.691-0.112-213.075-95.461-213.243-213.129v-597.038c0-0.029 0-0.064 0-0.098 0-117.81 95.448-213.328 213.232-213.44h404.159c-59.043 47.825-121.924 118.676-141.801 213.243zM813.709-56.816c49.202 19.287 209.701 97.224 209.701 268.645v171.716c0 0.016 0 0.035 0 0.054 0 37.474-24.216 69.292-57.852 80.659l-0.6 0.176-162.663 53.926c-3.995 1.357-8.598 2.141-13.383 2.141s-9.388-0.783-13.686-2.229l0.303 0.088-162.761-53.926c-34.19-11.606-58.354-43.418-58.354-80.873 0-0.005 0-0.011 0-0.016v0.001-171.716c0-152.232 158.432-243.158 206.65-267.366 7.944-4.973 17.46-8.18 27.669-8.847l0.179-0.009c9.121 0.146 17.644 2.572 25.066 6.731l-0.268-0.138z" />
<glyph unicode="&#xe936;" glyph-name="privacyPolicy2_white" horiz-adv-x="1023" d="M511.705 661.538v278.485c41.030-15.733 76.056-38.774 105.097-67.802l148.59-148.689c28.964-28.917 51.993-63.769 67.106-102.578l0.694-2.026h-278.879c-23.532 0-42.609 19.077-42.609 42.609v0zM475.492 149.834h-262.249c-0.030 0-0.064 0-0.099 0-23.429 0-42.441 18.909-42.608 42.298v0.016c0 23.587 19.121 42.708 42.708 42.708v0h255.852v85.219h-255.852c-23.587 0-42.708 19.121-42.708 42.708v0c-0.001 0.088-0.001 0.191-0.001 0.295 0 23.532 19.077 42.609 42.609 42.609 0.035 0 0.070 0 0.105 0h257.225c7.499 55.667 40.997 102.177 87.667 127.481l0.897 0.445h-4.428c-70.652 0-127.926 57.275-127.926 127.926v0 297.478c-6.79 0.492-13.678 0.984-20.665 0.984h-192.775c-117.691-0.112-213.075-95.461-213.243-213.129v-597.038c0-0.029 0-0.064 0-0.098 0-117.81 95.448-213.328 213.232-213.44h404.159c-59.043 47.825-121.924 118.676-141.801 213.243zM813.709-56.816c49.202 19.287 209.701 97.224 209.701 268.645v171.716c0 0.016 0 0.035 0 0.054 0 37.474-24.216 69.292-57.852 80.659l-0.6 0.176-162.663 53.926c-3.995 1.357-8.598 2.141-13.383 2.141s-9.388-0.783-13.686-2.229l0.303 0.088-162.761-53.926c-34.19-11.606-58.354-43.418-58.354-80.873 0-0.005 0-0.011 0-0.016v0.001-171.716c0-152.232 158.432-243.158 206.65-267.366 7.944-4.973 17.46-8.18 27.669-8.847l0.179-0.009c9.121 0.146 17.644 2.572 25.066 6.731l-0.268-0.138z" />
<glyph unicode="&#xe937;" d="M512.219 960c-0.065 0-0.142 0-0.219 0-282.77 0-512-229.23-512-512s229.23-512 512-512c282.693 0 511.875 229.105 512 511.769v0.012c0 0.065 0 0.142 0 0.219 0 282.693-229.105 511.875-511.769 512h-0.012z" />
<glyph unicode="&#xe938;" d="M848.151 776.705v0c0.319 0.016 0.692 0.025 1.068 0.025 12.699 0 22.994-10.295 22.994-22.994s-10.295-22.994-22.994-22.994c-12.305 0-22.353 9.666-22.965 21.82l-0.002 0.055v1.095c-0.017 0.327-0.027 0.71-0.027 1.095 0 12.095 9.805 21.899 21.899 21.899 0.010 0 0.019 0 0.029 0h-0.002z" />
<glyph unicode="&#xe939;" d="M512.219 914.231c12.699 0 22.994-10.295 22.994-22.994s-10.295-22.994-22.994-22.994c-12.699 0-22.994 10.295-22.994 22.994v0 0c-0.018 0.335-0.029 0.727-0.029 1.121 0 11.719 9.206 21.289 20.781 21.871l0.052 0.002h2.19z" />
<glyph unicode="&#xe93a;" glyph-name="privacyPolicy3_white" d="M768 960h-512c-141.385 0-256-114.615-256-256v0-512c0-141.385 114.615-256 256-256v0h512c141.385 0 256 114.615 256 256v0 512c0 141.385-114.615 256-256 256v0zM742.4 425.984c0-39.987-24.371-103.936-69.99-159.027-23.91-28.928-44.083-53.146-70.042-70.195-30.515-20.122-59.648-30.362-87.45-30.362-26.931 0-54.579 10.24-84.992 29.747-26.368 17.050-50.278 41.216-74.547 69.888-48.179 57.19-73.779 122.317-73.779 166.144v195.686c0 7.373-2.765 13.824 2.458 19.046 4.301 4.403 4.454 6.246 12.493 7.322l0.41-1.434h0.768c36.712 1.28 71.587 6.657 104.957 15.694l-3.222-0.743c43.11 11.264 74.65 30.054 91.443 51.2v0c4.878 6.431 12.495 10.564 21.081 10.649h0.014c6.483-0.042 12.359-2.61 16.7-6.767l-0.009 0.008c52.036-41.851 118.748-67.381 191.403-67.993l0.136-0.001c15.36 0 22.17-12.595 22.17-28.058v-200.806zM511.642 606.208c-49.035-0.261-88.694-40.029-88.781-89.080v-0.008c0-29.338 12.339-56.832 37.939-73.318v-99.84c0-29.901 23.757-54.17 51.2-54.17s51.2 24.269 51.2 54.17v99.84c25.6 16.486 37.786 44.032 37.786 73.318-0.29 49.164-40.155 88.922-89.333 89.037h-0.011z" />
<glyph unicode="&#xe93b;" d="M243.737 784.808c0-12.095-9.805-21.899-21.899-21.899s-21.899 9.805-21.899 21.899c0 12.095 9.805 21.899 21.899 21.899s21.899-9.805 21.899-21.899z" />
<glyph unicode="&#xe93c;" d="M385.423 812.838l96.356-256.438c-30.86-12.812-53.818-39.231-61.611-71.56l-0.144-0.707-249.43 127.891s34.382 121.321 214.83 201.252z" />
<glyph unicode="&#xe93d;" d="M68.982 425.225c-11.857 0.306-21.352 9.99-21.352 21.892 0 12.095 9.805 21.899 21.899 21.899s21.899-9.805 21.899-21.899c0-11.902-9.495-21.586-21.323-21.892l-0.028-0.001z" />
<glyph unicode="&#xe93e;" glyph-name="Referral2_green" d="M640 234.66c0 0.006 0 0.013 0 0.020 0 23.572 19.108 42.68 42.68 42.68s42.68-19.108 42.68-42.68c0-23.572-19.108-42.68-42.68-42.68-0.007 0-0.014 0-0.021 0h0.001c-23.547 0.034-42.626 19.113-42.66 42.657v0.003zM298.66 490.66c-23.552-0.011-42.64-19.107-42.64-42.66 0-23.56 19.1-42.66 42.66-42.66s42.66 19.1 42.66 42.66v0c-0.034 23.554-19.125 42.637-42.678 42.66h-0.002zM682.66 618.66c0.006 0 0.013 0 0.020 0 23.572 0 42.68 19.108 42.68 42.68s-19.108 42.68-42.68 42.68c-23.572 0-42.68-19.108-42.68-42.68v0c0.023-23.555 19.106-42.646 42.657-42.68h0.003zM1024 746.66v-597.32c-0.136-117.769-95.57-213.203-213.327-213.34h-597.333c-117.769 0.136-213.203 95.57-213.34 213.327v597.333c0.136 117.769 95.57 213.203 213.327 213.34h597.333c117.769-0.136 213.203-95.57 213.34-213.327v-0.013zM424.88 469.34l173.12 96.16c22.448-19.877 52.146-32.014 84.68-32.014 70.692 0 128 57.308 128 128s-57.308 128-128 128c-70.692 0-128-57.308-128-128 0-0.037 0-0.075 0-0.112v0.006c0.011-7.546 0.666-14.931 1.911-22.113l-0.111 0.773-173.1-96.16c-22.465 19.94-52.21 32.12-84.8 32.12-70.692 0-128-57.308-128-128s57.308-128 128-128c32.59 0 62.335 12.179 84.932 32.235l-0.132-0.115 173.080-96.12c-1.14-6.416-1.791-13.802-1.791-21.34 0-70.692 57.308-128 128-128s128 57.308 128 128c0 70.692-57.308 128-128 128-0.003 0-0.006 0-0.009 0v0c-0.010 0-0.023 0-0.035 0-32.541 0-62.232-12.198-84.752-32.271l0.127 0.111-173.1 96.16c1.132 6.416 1.78 13.802 1.78 21.34s-0.647 14.924-1.89 22.107l0.11-0.767z" />
<glyph unicode="&#xe93f;" glyph-name="Referral2_white" d="M640 234.66c0 0.006 0 0.013 0 0.020 0 23.572 19.108 42.68 42.68 42.68s42.68-19.108 42.68-42.68c0-23.572-19.108-42.68-42.68-42.68-0.007 0-0.014 0-0.021 0h0.001c-23.547 0.034-42.626 19.113-42.66 42.657v0.003zM298.66 490.66c-23.552-0.011-42.64-19.107-42.64-42.66 0-23.56 19.1-42.66 42.66-42.66s42.66 19.1 42.66 42.66v0c-0.034 23.554-19.125 42.637-42.678 42.66h-0.002zM682.66 618.66c0.006 0 0.013 0 0.020 0 23.572 0 42.68 19.108 42.68 42.68s-19.108 42.68-42.68 42.68c-23.572 0-42.68-19.108-42.68-42.68v0c0.023-23.555 19.106-42.646 42.657-42.68h0.003zM1024 746.66v-597.32c-0.136-117.769-95.57-213.203-213.327-213.34h-597.333c-117.769 0.136-213.203 95.57-213.34 213.327v597.333c0.136 117.769 95.57 213.203 213.327 213.34h597.333c117.769-0.136 213.203-95.57 213.34-213.327v-0.013zM424.88 469.34l173.12 96.16c22.448-19.877 52.146-32.014 84.68-32.014 70.692 0 128 57.308 128 128s-57.308 128-128 128c-70.692 0-128-57.308-128-128 0-0.037 0-0.075 0-0.112v0.006c0.011-7.546 0.666-14.931 1.911-22.113l-0.111 0.773-173.1-96.16c-22.465 19.94-52.21 32.12-84.8 32.12-70.692 0-128-57.308-128-128s57.308-128 128-128c32.59 0 62.335 12.179 84.932 32.235l-0.132-0.115 173.080-96.12c-1.14-6.416-1.791-13.802-1.791-21.34 0-70.692 57.308-128 128-128s128 57.308 128 128c0 70.692-57.308 128-128 128-0.003 0-0.006 0-0.009 0v0c-0.010 0-0.023 0-0.035 0-32.541 0-62.232-12.198-84.752-32.271l0.127 0.111-173.1 96.16c1.132 6.416 1.78 13.802 1.78 21.34s-0.647 14.924-1.89 22.107l0.11-0.767z" />
<glyph unicode="&#xe940;" horiz-adv-x="1020" d="M892.684-63.891c0.073 3.437-240.612 0.522-240.612 0.522v61.128l240.685 5.55c35.222 0 63.775 28.553 63.775 63.775v0l1.215 236.337 57.739-2.818 4.858-233.519c-0.878-70.828-57.128-128.236-127.41-130.968l-0.25-0.008zM956.533 832.304c0 35.222-28.553 63.775-63.775 63.775v0l-240.685-1.725v61.14l240.685 4.348c70.431 0 127.526-57.095 127.526-127.526v0l-4.858-215.787h-67.698zM63.763 832.304l3.935-215.787h-67.698v215.811c0 70.431 57.095 127.526 127.526 127.526v0l239.264-4.348v-61.14l-239.264 1.725c-35.213-0.007-63.756-28.551-63.763-63.763v-0.001zM63.763 67.085c0-35.218 28.546-63.768 63.763-63.775h0.001l233.519 3.935v-67.698h-233.519c-70.431 0-127.526 57.095-127.526 127.526v0 233.531h67.698z" />
<glyph unicode="&#xe941;" horiz-adv-x="1020" d="M24.291 486.525h970.16c13.415 0 24.291-10.875 24.291-24.291v0-32.865c0-13.415-10.875-24.291-24.291-24.291v0h-970.16c-13.415 0-24.291 10.875-24.291 24.291v0 32.865c0 13.415 10.875 24.291 24.291 24.291v0z" />
<glyph unicode="&#xe942;" horiz-adv-x="1020" d="M274.242 729.347h466.977c26.831 0 48.581-21.751 48.581-48.581v0-466.977c0-26.831-21.751-48.581-48.581-48.581v0h-466.977c-26.831 0-48.581 21.751-48.581 48.581v0 466.977c0 26.831 21.751 48.581 48.581 48.581v0z" />
<glyph unicode="&#xe943;" glyph-name="Scan_green" d="M951.375 616.566l8.777 215.783c-0.064 35.239-28.645 63.781-63.893 63.781-0.040 0-0.079 0-0.119 0h0.006l-241.596-1.71v61.080l241.596 4.501c0.067 0 0.146 0 0.225 0 70.5 0 127.668-57.081 127.808-127.548v-0.014l-4.861-215.783h-67.944zM64.006 832.349l3.938-215.783h-67.944v215.783c0.090 70.519 57.277 127.651 127.809 127.651 0.071 0 0.143 0 0.214 0h-0.011l240.179-4.501v-61.125l-240.179 1.71c-0.027 0-0.059 0-0.090 0-35.236 0-63.813-28.514-63.915-63.726v-0.010zM40.847 486.552h185.67v161.319c0.077 45.036 36.603 81.515 81.65 81.515 0.055 0 0.111 0 0.166 0h402.659c0.047 0 0.102 0 0.158 0 45.047 0 81.573-36.479 81.65-81.508v-161.326h188.866c0.285 0.007 0.62 0.011 0.957 0.011 22.472 0 40.69-18.218 40.69-40.69s-18.218-40.69-40.69-40.69c-0.336 0-0.672 0.004-1.006 0.012l0.050-0.001h-188.866v-158.461c-0.090-45.039-36.621-81.515-81.672-81.515-0.048 0-0.095 0-0.143 0h-402.661c-0.040 0-0.088 0-0.135 0-45.051 0-81.583 36.476-81.672 81.506v158.47h-185.67c-0.285-0.007-0.62-0.011-0.957-0.011-22.472 0-40.69 18.218-40.69 40.69s18.218 40.69 40.69 40.69c0.336 0 0.672-0.004 1.006-0.012l-0.050 0.001zM64.006 67.095c0.077-35.242 28.663-63.781 63.915-63.781 0.032 0 0.063 0 0.095 0h-0.005l234.417 3.938v-67.697h-234.417c-0.067 0-0.146 0-0.225 0-70.487 0-127.645 57.071-127.786 127.525v233.508h67.944zM960.152 67.095l1.215 236.308 57.952-2.836 4.861-233.517c-1.006-70.93-57.428-128.358-127.861-130.975l-0.24-0.007c0 3.443-241.529 0.518-241.529 0.518v61.147l241.596 5.536c0.033 0 0.073 0 0.113 0 35.264 0 63.855 28.568 63.893 63.822v0.004z" />
<glyph unicode="&#xe944;" glyph-name="Scan_white" d="M951.375 616.566l8.777 215.783c-0.064 35.239-28.645 63.781-63.893 63.781-0.040 0-0.079 0-0.119 0h0.006l-241.596-1.71v61.080l241.596 4.501c0.067 0 0.146 0 0.225 0 70.5 0 127.668-57.081 127.808-127.548v-0.014l-4.861-215.783h-67.944zM64.006 832.349l3.938-215.783h-67.944v215.783c0.090 70.519 57.277 127.651 127.809 127.651 0.071 0 0.143 0 0.214 0h-0.011l240.179-4.501v-61.125l-240.179 1.71c-0.027 0-0.059 0-0.090 0-35.236 0-63.813-28.514-63.915-63.726v-0.010zM40.847 486.552h185.67v161.319c0.077 45.036 36.603 81.515 81.65 81.515 0.055 0 0.111 0 0.166 0h402.659c0.047 0 0.102 0 0.158 0 45.047 0 81.573-36.479 81.65-81.508v-161.326h188.866c0.285 0.007 0.62 0.011 0.957 0.011 22.472 0 40.69-18.218 40.69-40.69s-18.218-40.69-40.69-40.69c-0.336 0-0.672 0.004-1.006 0.012l0.050-0.001h-188.866v-158.461c-0.090-45.039-36.621-81.515-81.672-81.515-0.048 0-0.095 0-0.143 0h-402.661c-0.040 0-0.088 0-0.135 0-45.051 0-81.583 36.476-81.672 81.506v158.47h-185.67c-0.285-0.007-0.62-0.011-0.957-0.011-22.472 0-40.69 18.218-40.69 40.69s18.218 40.69 40.69 40.69c0.336 0 0.672-0.004 1.006-0.012l-0.050 0.001zM64.006 67.095c0.077-35.242 28.663-63.781 63.915-63.781 0.032 0 0.063 0 0.095 0h-0.005l234.417 3.938v-67.697h-234.417c-0.067 0-0.146 0-0.225 0-70.487 0-127.645 57.071-127.786 127.525v233.508h67.944zM960.152 67.095l1.215 236.308 57.952-2.836 4.861-233.517c-1.006-70.93-57.428-128.358-127.861-130.975l-0.24-0.007c0 3.443-241.529 0.518-241.529 0.518v61.147l241.596 5.536c0.033 0 0.073 0 0.113 0 35.264 0 63.855 28.568 63.893 63.822v0.004z" />
<glyph unicode="&#xe945;" d="M175.192 134.843c-12.095 0-21.899 9.805-21.899 21.899s9.805 21.899 21.899 21.899v0 0c12.699 0 22.994-10.295 22.994-22.994s-10.295-22.994-22.994-22.994v0 0z" />
<glyph unicode="&#xe946;" d="M346.224 107.908s-120.883 34.82-200.157 215.925l256 95.042c12.784-30.906 39.085-53.966 71.328-62.041l0.72-0.153z" />
<glyph unicode="&#xe947;" glyph-name="spinwin2_green" d="M512 960c282.77 0 512-229.23 512-512s-229.23-512-512-512c-282.77 0-512 229.23-512 512v0c0 282.77 229.23 512 512 512v0zM512 890.163c-0.278 0.001-0.608 0.001-0.937 0.001-75.432 0-146.438-18.952-208.514-52.355l2.348 1.154-14.080-7.987 139.674-241.92c-48.415-28.355-80.606-79.809-81.407-138.843l-0.001-0.114-279.245 3.482v-5.581c0-0.091 0-0.198 0-0.306 0-157.832 82.763-296.335 207.258-374.475l1.842-1.079 11.93-7.117 139.622 241.92c23.379-13.747 51.498-21.866 81.513-21.866 29.288 0 56.77 7.731 80.518 21.263l-0.802-0.421 136.602-243.712c135.762 77.183 225.843 220.844 225.843 385.545 0 0.087 0 0.174 0 0.261v-0.014h-279.245v8.909c-3.136 55.749-33.881 103.687-78.678 130.662l-0.733 0.41 142.694 240.128c-64.359 38.985-142.128 62.055-225.284 62.055-0.322 0-0.645 0-0.967-0.001h0.050zM512 717.568l26.982-131.584c65.263-12.955 113.778-69.756 113.778-137.887 0-77.564-62.878-140.442-140.442-140.442s-140.442 62.878-140.442 140.442c0 68.618 49.211 125.743 114.265 138.006l0.873 0.137 24.986 131.328z" />
<glyph unicode="&#xe948;" glyph-name="spinwin2_white" d="M512 960c282.77 0 512-229.23 512-512s-229.23-512-512-512c-282.77 0-512 229.23-512 512v0c0 282.77 229.23 512 512 512v0zM512 890.163c-0.278 0.001-0.608 0.001-0.937 0.001-75.432 0-146.438-18.952-208.514-52.355l2.348 1.154-14.080-7.987 139.674-241.92c-48.415-28.355-80.606-79.809-81.407-138.843l-0.001-0.114-279.245 3.482v-5.581c0-0.091 0-0.198 0-0.306 0-157.832 82.763-296.335 207.258-374.475l1.842-1.079 11.93-7.117 139.622 241.92c23.379-13.747 51.498-21.866 81.513-21.866 29.288 0 56.77 7.731 80.518 21.263l-0.802-0.421 136.602-243.712c135.762 77.183 225.843 220.844 225.843 385.545 0 0.087 0 0.174 0 0.261v-0.014h-279.245v8.909c-3.136 55.749-33.881 103.687-78.678 130.662l-0.733 0.41 142.694 240.128c-64.359 38.985-142.128 62.055-225.284 62.055-0.322 0-0.645 0-0.967-0.001h0.050zM512 717.568l26.982-131.584c65.263-12.955 113.778-69.756 113.778-137.887 0-77.564-62.878-140.442-140.442-140.442s-140.442 62.878-140.442 140.442c0 68.618 49.211 125.743 114.265 138.006l0.873 0.137 24.986 131.328z" />
<glyph unicode="&#xe949;" d="M512.219-3.559c-0.327-0.017-0.71-0.027-1.095-0.027-12.095 0-21.899 9.805-21.899 21.899 0 0.010 0 0.019 0 0.029v-0.002c0 12.095 9.805 21.899 21.899 21.899v0 0c12.639 0 22.885-10.246 22.885-22.885s-10.246-22.885-22.885-22.885v0z" />
<glyph unicode="&#xe94a;" d="M512.219 393.69c-29.632 0-53.653 24.021-53.653 53.653s24.021 53.653 53.653 53.653c29.632 0 53.653-24.021 53.653-53.653v0c-0.614-29.157-24.395-52.558-53.642-52.558-0.081 0-0.162 0-0.243 0.001h0.013z" />
<glyph unicode="&#xe94b;" d="M854.282 126.303c0-12.095-9.805-21.899-21.899-21.899s-21.899 9.805-21.899 21.899c0 12.095 9.805 21.899 21.899 21.899s21.899-9.805 21.899-21.899z" />
<glyph unicode="&#xe94c;" glyph-name="Sporthighlights2_green" d="M768.047 448.094c-0.056 0-0.122 0-0.189 0-141.463 0-256.142-114.678-256.142-256.142s114.678-256.142 256.142-256.142c141.463 0 256.142 114.678 256.142 256.142 0 0.066 0 0.133 0 0.199v-0.010c-0.107 141.316-114.637 255.845-255.943 255.953h-0.010zM814.104 87.948l-88.715 86.073v146.097h85.318v-109.856l62.289-61.157zM426.588 192.142c0 0.085 0 0.186 0 0.286 0 188.374 152.707 341.082 341.082 341.082 81.187 0 155.749-28.365 214.316-75.727l-0.644 0.504v373.736c-0.53 70.048-57.173 126.691-127.171 127.221h-726.193c-70.636-0.107-127.869-57.34-127.976-127.966v-681.796h429.608c-1.773 12.68-2.866 27.464-3.019 42.473l-0.001 0.186zM341.27 746.706l298.8-165.916-298.8-165.916z" />
<glyph unicode="&#xe94d;" glyph-name="Sporthighlights2_white" d="M768.047 448.094c-0.056 0-0.122 0-0.189 0-141.463 0-256.142-114.678-256.142-256.142s114.678-256.142 256.142-256.142c141.463 0 256.142 114.678 256.142 256.142 0 0.066 0 0.133 0 0.199v-0.010c-0.107 141.316-114.637 255.845-255.943 255.953h-0.010zM814.104 87.948l-88.715 86.073v146.097h85.318v-109.856l62.289-61.157zM426.588 192.142c0 0.085 0 0.186 0 0.286 0 188.374 152.707 341.082 341.082 341.082 81.187 0 155.749-28.365 214.316-75.727l-0.644 0.504v373.736c-0.53 70.048-57.173 126.691-127.171 127.221h-726.193c-70.636-0.107-127.869-57.34-127.976-127.966v-681.796h429.608c-1.773 12.68-2.866 27.464-3.019 42.473l-0.001 0.186zM341.27 746.706l298.8-165.916-298.8-165.916z" />
<glyph unicode="&#xe94e;" glyph-name="Tasks2_green" horiz-adv-x="931" d="M628.375 960h-325.861c-38.56 0-69.819-31.259-69.819-69.819s31.259-69.819 69.819-69.819v0h325.861c38.56 0 69.819 31.259 69.819 69.819s-31.259 69.819-69.819 69.819v0zM791.25 890.181h-23.236c-0.222-77.031-62.608-139.417-139.618-139.639h-325.882c-77.031 0.222-139.417 62.608-139.639 139.618v0.021h-23.236c-77.12 0-139.639-62.518-139.639-139.639v0-674.959c0-77.12 62.518-139.639 139.639-139.639v0h651.611c77.12 0 139.639 62.518 139.639 139.639v0 674.959c0 77.12-62.518 139.639-139.639 139.639v0zM163.378 570.854c5.931 5.822 14.066 9.415 23.040 9.415s17.11-3.594 23.045-9.42l-0.005 0.005 28.821-29.324 63.787 68.423c6.008 6.808 14.753 11.080 24.496 11.080 18.015 0 32.62-14.604 32.62-32.62 0-8.826-3.505-16.834-9.2-22.706l0.008 0.008-86.576-93.055c-5.78-6.304-14.045-10.25-23.231-10.277h-0.508c-0.147-0.002-0.32-0.004-0.494-0.004-8.948 0-17.020 3.75-22.729 9.765l-0.013 0.014-53.565 52.616c-5.846 5.868-9.46 13.963-9.46 22.902 0 9.077 3.727 17.284 9.734 23.174l0.005 0.005zM255.986 112.839c-0.017 0-0.036 0-0.056 0-56.576 0-102.439 45.864-102.439 102.439s45.864 102.439 102.439 102.439c56.576 0 102.439-45.864 102.439-102.439 0-0.020 0-0.039 0-0.059v0.003c-0.19-56.468-45.915-102.193-102.365-102.383h-0.018zM723.776 168.694h-209.458c-25.024 0.894-44.971 21.395-44.971 46.556s19.947 45.662 44.889 46.553l0.081 0.002h209.458c25.024-0.894 44.971-21.395 44.971-46.556s-19.947-45.662-44.889-46.553l-0.081-0.002zM723.776 494.5h-209.458c-25.024 0.894-44.971 21.395-44.971 46.556s19.947 45.662 44.889 46.553l0.081 0.002h209.458c25.024-0.894 44.971-21.395 44.971-46.556s-19.947-45.662-44.889-46.553l-0.081-0.002zM218.73 215.222c0-20.576 16.68-37.256 37.256-37.256s37.256 16.68 37.256 37.256v0 0c0 20.576-16.68 37.256-37.256 37.256s-37.256-16.68-37.256-37.256v0z" />
<glyph unicode="&#xe94f;" glyph-name="Tasks2_white" horiz-adv-x="931" d="M628.375 960h-325.861c-38.56 0-69.819-31.259-69.819-69.819s31.259-69.819 69.819-69.819v0h325.861c38.56 0 69.819 31.259 69.819 69.819s-31.259 69.819-69.819 69.819v0zM791.25 890.181h-23.236c-0.222-77.031-62.608-139.417-139.618-139.639h-325.882c-77.031 0.222-139.417 62.608-139.639 139.618v0.021h-23.236c-77.12 0-139.639-62.518-139.639-139.639v0-674.959c0-77.12 62.518-139.639 139.639-139.639v0h651.611c77.12 0 139.639 62.518 139.639 139.639v0 674.959c0 77.12-62.518 139.639-139.639 139.639v0zM163.378 570.854c5.931 5.822 14.066 9.415 23.040 9.415s17.11-3.594 23.045-9.42l-0.005 0.005 28.821-29.324 63.787 68.423c6.008 6.808 14.753 11.080 24.496 11.080 18.015 0 32.62-14.604 32.62-32.62 0-8.826-3.505-16.834-9.2-22.706l0.008 0.008-86.576-93.055c-5.78-6.304-14.045-10.25-23.231-10.277h-0.508c-0.147-0.002-0.32-0.004-0.494-0.004-8.948 0-17.020 3.75-22.729 9.765l-0.013 0.014-53.565 52.616c-5.846 5.868-9.46 13.963-9.46 22.902 0 9.077 3.727 17.284 9.734 23.174l0.005 0.005zM255.986 112.839c-0.017 0-0.036 0-0.056 0-56.576 0-102.439 45.864-102.439 102.439s45.864 102.439 102.439 102.439c56.576 0 102.439-45.864 102.439-102.439 0-0.020 0-0.039 0-0.059v0.003c-0.19-56.468-45.915-102.193-102.365-102.383h-0.018zM723.776 168.694h-209.458c-25.024 0.894-44.971 21.395-44.971 46.556s19.947 45.662 44.889 46.553l0.081 0.002h209.458c25.024-0.894 44.971-21.395 44.971-46.556s-19.947-45.662-44.889-46.553l-0.081-0.002zM723.776 494.5h-209.458c-25.024 0.894-44.971 21.395-44.971 46.556s19.947 45.662 44.889 46.553l0.081 0.002h209.458c25.024-0.894 44.971-21.395 44.971-46.556s-19.947-45.662-44.889-46.553l-0.081-0.002zM218.73 215.222c0-20.576 16.68-37.256 37.256-37.256s37.256 16.68 37.256 37.256v0 0c0 20.576-16.68 37.256-37.256 37.256s-37.256-16.68-37.256-37.256v0z" />
<glyph unicode="&#xe950;" d="M656.972 82.505l-96.137 256.219c30.869 13.016 53.807 39.557 61.611 71.992l0.145 0.712 248.554-127.015s-33.725-121.54-214.173-201.909z" />
<glyph unicode="&#xe951;" d="M624.999 500.12c-13.714 30.401-40.809 52.66-73.567 59.449l-0.671 0.116 118.912 253.81s121.978-30.221 207.822-208.479z" />
<glyph unicode="&#xe952;" glyph-name="Tasks3_green" horiz-adv-x="1160" d="M1023.735 960h-887.944c-0.020 0-0.044 0-0.067 0-74.773 0-135.423-60.465-135.724-135.167v-60.307c0.226-96.555 78.551-174.741 175.137-174.741 0.14 0 0.28 0 0.42 0h36.874v-78.693c0.514-174.087 127.395-318.387 293.71-346.020l2.050-0.281v-111.018h-165.599c-32.522 0-58.887-26.365-58.887-58.887s26.365-58.887 58.887-58.887v0h449.569c32.522 0 58.887 26.365 58.887 58.887s-26.365 58.887-58.887 58.887v0h-165.599v111.018c168.28 27.979 295.061 172.27 295.495 346.255v78.74h62.464c0.059 0 0.129 0 0.199 0 96.586 0 174.911 78.186 175.137 174.719v60.3c-0.451 74.763-61.162 135.195-135.988 135.195-0.047 0-0.095 0-0.142 0h0.007zM178.516 707.892h-2.981c-0.020 0-0.044 0-0.068 0-31.358 0-56.806 25.308-57.031 56.614v60.299c0 0 0 0 0 0.001 0 9.611 7.754 17.412 17.348 17.487h42.798zM818.922 715.642l-207.86-224.354s0 0 0-0.397l-56.569-61.007s-0.397 0-0.662-0.53l-6.624-6.624c-3.811-4.11-9.24-6.674-15.268-6.674-5.468 0-10.443 2.11-14.156 5.56l0.013-0.012-71.473 65.577 0.53 0.53-84.191 77.236c-0.912 0.816-1.484 1.997-1.484 3.312s0.572 2.496 1.48 3.308l0.004 0.004c20.883 22.487 50.612 36.513 83.616 36.513 29.699 0 56.746-11.357 77.034-29.965l-0.084 0.076 3.974-3.776 135.593 146.324c20.3 21.854 49.195 35.483 81.273 35.483 28.769 0 54.977-10.962 74.675-28.937l-0.087 0.078c1.788-1.395 2.927-3.549 2.927-5.97 0-2.301-1.029-4.361-2.651-5.746l-0.010-0.009zM1041.355 764.394c-0.15-31.311-25.567-56.635-56.899-56.635-0.070 0-0.14 0-0.21 0h-3.301v134.533h42.791c0.020 0 0.043 0 0.066 0 9.671 0 17.516-7.821 17.553-17.484v-0.004z" />
<glyph unicode="&#xe953;" glyph-name="Tasks3_white" horiz-adv-x="1160" d="M1023.735 960h-887.944c-0.020 0-0.044 0-0.067 0-74.773 0-135.423-60.465-135.724-135.167v-60.307c0.226-96.555 78.551-174.741 175.137-174.741 0.14 0 0.28 0 0.42 0h36.874v-78.693c0.514-174.087 127.395-318.387 293.71-346.020l2.050-0.281v-111.018h-165.599c-32.522 0-58.887-26.365-58.887-58.887s26.365-58.887 58.887-58.887v0h449.569c32.522 0 58.887 26.365 58.887 58.887s-26.365 58.887-58.887 58.887v0h-165.599v111.018c168.28 27.979 295.061 172.27 295.495 346.255v78.74h62.464c0.059 0 0.129 0 0.199 0 96.586 0 174.911 78.186 175.137 174.719v60.3c-0.451 74.763-61.162 135.195-135.988 135.195-0.047 0-0.095 0-0.142 0h0.007zM178.516 707.892h-2.981c-0.020 0-0.044 0-0.068 0-31.358 0-56.806 25.308-57.031 56.614v60.299c0 0 0 0 0 0.001 0 9.611 7.754 17.412 17.348 17.487h42.798zM818.922 715.642l-207.86-224.354s0 0 0-0.397l-56.569-61.007s-0.397 0-0.662-0.53l-6.624-6.624c-3.811-4.11-9.24-6.674-15.268-6.674-5.468 0-10.443 2.11-14.156 5.56l0.013-0.012-71.473 65.577 0.53 0.53-84.191 77.236c-0.912 0.816-1.484 1.997-1.484 3.312s0.572 2.496 1.48 3.308l0.004 0.004c20.883 22.487 50.612 36.513 83.616 36.513 29.699 0 56.746-11.357 77.034-29.965l-0.084 0.076 3.974-3.776 135.593 146.324c20.3 21.854 49.195 35.483 81.273 35.483 28.769 0 54.977-10.962 74.675-28.937l-0.087 0.078c1.788-1.395 2.927-3.549 2.927-5.97 0-2.301-1.029-4.361-2.651-5.746l-0.010-0.009zM1041.355 764.394c-0.15-31.311-25.567-56.635-56.899-56.635-0.070 0-0.14 0-0.21 0h-3.301v134.533h42.791c0.020 0 0.043 0 0.066 0 9.671 0 17.516-7.821 17.553-17.484v-0.004z" />
<glyph unicode="&#xe954;" d="M924.797 424.349c-12.639 0-22.885 10.246-22.885 22.885s10.246 22.885 22.885 22.885v0c12.639 0 22.885-10.246 22.885-22.885s-10.246-22.885-22.885-22.885v0z" />
<glyph unicode="&#xe955;" d="M512.219 960c-0.065 0-0.142 0-0.219 0-282.77 0-512-229.23-512-512s229.23-512 512-512c282.693 0 511.875 229.105 512 511.769v0.012c0 0.065 0 0.142 0 0.219 0 282.693-229.105 511.875-511.769 512h-0.012z" />
<glyph unicode="&#xe956;" d="M848.151 776.705v0c0.319 0.016 0.692 0.025 1.068 0.025 12.699 0 22.994-10.295 22.994-22.994s-10.295-22.994-22.994-22.994c-12.305 0-22.353 9.666-22.965 21.82l-0.002 0.055v1.095c-0.017 0.327-0.027 0.71-0.027 1.095 0 12.095 9.805 21.899 21.899 21.899 0.010 0 0.019 0 0.029 0h-0.002z" />
<glyph unicode="&#xe957;" d="M512.219 914.231c12.699 0 22.994-10.295 22.994-22.994s-10.295-22.994-22.994-22.994c-12.699 0-22.994 10.295-22.994 22.994v0 0c-0.018 0.335-0.029 0.727-0.029 1.121 0 11.719 9.206 21.289 20.781 21.871l0.052 0.002h2.19z" />
<glyph unicode="&#xe958;" d="M243.737 784.808c0-12.095-9.805-21.899-21.899-21.899s-21.899 9.805-21.899 21.899c0 12.095 9.805 21.899 21.899 21.899s21.899-9.805 21.899-21.899z" />
<glyph unicode="&#xe959;" glyph-name="Termsconditions2_green" horiz-adv-x="931" d="M651.574 308.198v-93.050h-372.426v93.050zM897.735 680.624l-1.82 2.275c-55.511 55.056-193.607 190.422-248.89 244.795-5.252 4.961-11.147 9.335-17.523 12.96l-0.45 0.235c-0.556-15.818-0.873-34.406-0.873-53.069 0-68.617 4.285-136.233 12.602-202.595l-0.809 7.911c61.119-8.573 131.726-13.468 203.476-13.468 19.091 0 38.1 0.347 57.023 1.034l-2.736-0.079zM930.95 447.886c-0.563-151.739-17.524-299.212-49.198-441.136l2.56 13.654c-4.17-18.74-18.609-33.256-36.98-37.474l-0.331-0.064c-113.758-28.168-244.992-45.528-379.867-47.98l-1.659-0.024c-136.389 2.511-267.462 19.87-393.327 50.526l12.256-2.522c-18.729 4.229-33.195 18.771-37.251 37.214l-0.060 0.324c-29.101 128.262-46.061 275.734-46.637 427.070l-0.001 0.412c0.261 151.549 16.821 299.089 48.019 441.144l-2.518-13.662c4.368 19.060 19.274 33.737 38.125 37.709l0.323 0.057c113.744 27.785 244.888 44.751 379.639 46.848l1.431 0.018c22.75 0 45.501 0 70.982-2.275-5.915-204.754 16.608-311.227 17.518-315.777 4.211-18.426 18.854-32.535 37.251-35.902l0.287-0.044c75.194-12.548 161.865-19.744 250.207-19.793h0.049c26.846 0 55.056 1.138 83.494 2.958 3.413-48.004 5.46-96.235 5.46-141.281zM186.099 727.262c0.636-25.264 21.267-45.501 46.625-45.501 0.005 0 0.010 0 0.015 0h139.687c25.695 0 46.525 20.83 46.525 46.525s-20.83 46.525-46.525 46.525v0h-139.688c-0.353 0.010-0.768 0.015-1.184 0.015-25.13 0-45.501-20.371-45.501-45.501 0-0.726 0.017-1.447 0.051-2.164l-0.004 0.101zM186.099 540.936c0-0.004 0-0.009 0-0.014 0-25.13 20.371-45.501 45.501-45.501 0.4 0 0.799 0.005 1.196 0.015l-0.059-0.001h139.688c25.695 0 46.525 20.83 46.525 46.525s-20.83 46.525-46.525 46.525v0h-139.688c-0.003 0-0.006 0-0.009 0-25.758 0-46.639-20.881-46.639-46.639 0-0.32 0.003-0.639 0.010-0.958l-0.001 0.048zM744.169 354.837c0 25.13-20.371 45.501-45.501 45.501v0h-465.93c-0.004 0-0.009 0-0.014 0-25.358 0-45.989-20.237-46.623-45.442l-0.001-0.059v-186.327c0-0.004 0-0.009 0-0.014 0-25.13 20.371-45.501 45.501-45.501 0.4 0 0.799 0.005 1.196 0.015l-0.059-0.001h465.93c25.13 0 45.501 20.371 45.501 45.501v0z" />
<glyph unicode="&#xe95a;" glyph-name="Termsconditions2_white" horiz-adv-x="931" d="M651.574 308.198v-93.050h-372.426v93.050zM897.735 680.624l-1.82 2.275c-55.511 55.056-193.607 190.422-248.89 244.795-5.252 4.961-11.147 9.335-17.523 12.96l-0.45 0.235c-0.556-15.818-0.873-34.406-0.873-53.069 0-68.617 4.285-136.233 12.602-202.595l-0.809 7.911c61.119-8.573 131.726-13.468 203.476-13.468 19.091 0 38.1 0.347 57.023 1.034l-2.736-0.079zM930.95 447.886c-0.563-151.739-17.524-299.212-49.198-441.136l2.56 13.654c-4.17-18.74-18.609-33.256-36.98-37.474l-0.331-0.064c-113.758-28.168-244.992-45.528-379.867-47.98l-1.659-0.024c-136.389 2.511-267.462 19.87-393.327 50.526l12.256-2.522c-18.729 4.229-33.195 18.771-37.251 37.214l-0.060 0.324c-29.101 128.262-46.061 275.734-46.637 427.070l-0.001 0.412c0.261 151.549 16.821 299.089 48.019 441.144l-2.518-13.662c4.368 19.060 19.274 33.737 38.125 37.709l0.323 0.057c113.744 27.785 244.888 44.751 379.639 46.848l1.431 0.018c22.75 0 45.501 0 70.982-2.275-5.915-204.754 16.608-311.227 17.518-315.777 4.211-18.426 18.854-32.535 37.251-35.902l0.287-0.044c75.194-12.548 161.865-19.744 250.207-19.793h0.049c26.846 0 55.056 1.138 83.494 2.958 3.413-48.004 5.46-96.235 5.46-141.281zM186.099 727.262c0.636-25.264 21.267-45.501 46.625-45.501 0.005 0 0.010 0 0.015 0h139.687c25.695 0 46.525 20.83 46.525 46.525s-20.83 46.525-46.525 46.525v0h-139.688c-0.353 0.010-0.768 0.015-1.184 0.015-25.13 0-45.501-20.371-45.501-45.501 0-0.726 0.017-1.447 0.051-2.164l-0.004 0.101zM186.099 540.936c0-0.004 0-0.009 0-0.014 0-25.13 20.371-45.501 45.501-45.501 0.4 0 0.799 0.005 1.196 0.015l-0.059-0.001h139.688c25.695 0 46.525 20.83 46.525 46.525s-20.83 46.525-46.525 46.525v0h-139.688c-0.003 0-0.006 0-0.009 0-25.758 0-46.639-20.881-46.639-46.639 0-0.32 0.003-0.639 0.010-0.958l-0.001 0.048zM744.169 354.837c0 25.13-20.371 45.501-45.501 45.501v0h-465.93c-0.004 0-0.009 0-0.014 0-25.358 0-45.989-20.237-46.623-45.442l-0.001-0.059v-186.327c0-0.004 0-0.009 0-0.014 0-25.13 20.371-45.501 45.501-45.501 0.4 0 0.799 0.005 1.196 0.015l-0.059-0.001h465.93c25.13 0 45.501 20.371 45.501 45.501v0z" />
<glyph unicode="&#xe95b;" d="M385.423 812.838l96.356-256.438c-30.86-12.812-53.818-39.231-61.611-71.56l-0.144-0.707-249.43 127.891s34.382 121.321 214.83 201.252z" />
<glyph unicode="&#xe95c;" d="M68.982 425.225c-11.857 0.306-21.352 9.99-21.352 21.892 0 12.095 9.805 21.899 21.899 21.899s21.899-9.805 21.899-21.899c0-11.902-9.495-21.586-21.323-21.892l-0.028-0.001z" />
<glyph unicode="&#xe95d;" d="M175.192 134.843c-12.095 0-21.899 9.805-21.899 21.899s9.805 21.899 21.899 21.899v0 0c12.699 0 22.994-10.295 22.994-22.994s-10.295-22.994-22.994-22.994v0 0z" />
<glyph unicode="&#xe95e;" glyph-name="TermsConditions3_green" horiz-adv-x="853" d="M852.267 533.317h-297.628c-70.658 0.080-127.915 57.337-127.995 127.988v297.675c-6.86 0.46-13.739 1.020-20.699 1.020h-192.632c-117.764-0.182-213.175-95.622-213.312-213.379v-597.29c0.136-117.758 95.555-213.184 213.297-213.332h426.678c117.756 0.148 213.175 95.574 213.312 213.318v363.299c0 6.96-0.54 13.819-1.020 20.699zM383.985 448.62c0 23.56 19.099 42.658 42.658 42.658s42.658-19.099 42.658-42.658v0-149.334c0-23.56-19.099-42.658-42.658-42.658s-42.658 19.099-42.658 42.658v0zM426.643 64.635c-35.345 0-63.998 28.653-63.998 63.998s28.653 63.998 63.998 63.998c35.345 0 63.998-28.653 63.998-63.998v0c0-35.345-28.653-63.998-63.998-63.998v0zM511.98 661.312v279.069c41.044-15.742 76.086-38.773 105.161-67.783l148.648-148.728c29.079-29.075 52.15-64.158 67.191-103.227l0.687-2.029h-279.029c-23.557 0.023-42.647 19.119-42.658 42.677v0.001z" />
<glyph unicode="&#xe95f;" glyph-name="TermsConditions3_white" horiz-adv-x="853" d="M852.267 533.317h-297.628c-70.658 0.080-127.915 57.337-127.995 127.988v297.675c-6.86 0.46-13.739 1.020-20.699 1.020h-192.632c-117.764-0.182-213.175-95.622-213.312-213.379v-597.29c0.136-117.758 95.555-213.184 213.297-213.332h426.678c117.756 0.148 213.175 95.574 213.312 213.318v363.299c0 6.96-0.54 13.819-1.020 20.699zM383.985 448.62c0 23.56 19.099 42.658 42.658 42.658s42.658-19.099 42.658-42.658v0-149.334c0-23.56-19.099-42.658-42.658-42.658s-42.658 19.099-42.658 42.658v0zM426.643 64.635c-35.345 0-63.998 28.653-63.998 63.998s28.653 63.998 63.998 63.998c35.345 0 63.998-28.653 63.998-63.998v0c0-35.345-28.653-63.998-63.998-63.998v0zM511.98 661.312v279.069c41.044-15.742 76.086-38.773 105.161-67.783l148.648-148.728c29.079-29.075 52.15-64.158 67.191-103.227l0.687-2.029h-279.029c-23.557 0.023-42.647 19.119-42.658 42.677v0.001z" />
<glyph unicode="&#xe960;" horiz-adv-x="1133" d="M174.265 960h0.002c-0.012 0-0.024 0-0.037 0-96.206 0-174.199-77.981-174.219-174.184v-573.356c0.013-96.207 78.009-174.194 174.219-174.194 0.012 0 0.024 0 0.035 0l409.978-7.123c-108.463 356.152 236.848 610.2 540.749 388.827l7.876 365.835c0 96.208-83.849 174.196-180.091 174.196h-778.511zM0.232 698.701h1132.636v-87.092h-1132.636v87.092z" />
<glyph unicode="&#xe961;" horiz-adv-x="1133" d="M1123.903 173.45c0-131.14-106.31-237.45-237.45-237.45s-237.45 106.31-237.45 237.45c0 131.14 106.31 237.45 237.45 237.45s237.45-106.31 237.45-237.45z" />
<glyph unicode="&#xe962;" horiz-adv-x="1133" d="M959.321 265.071c-12.853 15.028-30.649 25.498-50.846 28.888l-0.501 0.069v35.791h-35.34v-36.382c-30.087-5.159-52.695-31.049-52.695-62.22 0-1.436 0.048-2.86 0.142-4.272l-0.010 0.191c0-62.918 90.347-63.833 90.347-97.447 0-15.058-8.166-22.517-26.884-22.517-18.849 1.066-35.756 8.605-48.711 20.408l0.063-0.056-23.56-36.996c16.612-14.406 37.611-24.168 60.745-27.058l0.563-0.057v-34.853h35.34v36.706c30.833 5.632 53.898 32.287 53.898 64.33 0 1.451-0.047 2.892-0.141 4.32l0.010-0.194c0 66.301-90.625 64.76-90.625 95.907 0 15.417 8.467 21.278 24.475 21.278 14.752-0.562 27.876-7.091 37.109-17.228l0.038-0.042z" />
<glyph unicode="&#xe963;" glyph-name="Topup_green" horiz-adv-x="1133" d="M174.265 960h0.002c-0.012 0-0.024 0-0.037 0-96.206 0-174.199-77.981-174.219-174.184v-573.356c0.013-96.207 78.009-174.194 174.219-174.194 0.012 0 0.024 0 0.035 0l409.978-7.123c-108.463 356.152 236.848 610.2 540.749 388.827l7.876 365.835c0 96.208-83.849 174.196-180.091 174.196h-778.511zM0.232 698.701h1132.636v-87.092h-1132.636v87.092zM886.453 410.9c131.14 0 237.45-106.31 237.45-237.45s-106.31-237.45-237.45-237.45c-131.14 0-237.45 106.31-237.45 237.45v0c0 131.14 106.31 237.45 237.45 237.45v0zM970.719 260.090c-13.838 16.201-33.009 27.489-54.769 31.141l-0.54 0.075v38.513h-38.061v-39.185c-32.396-5.562-56.736-33.441-56.736-67.005 0-1.545 0.052-3.079 0.153-4.599l-0.011 0.206c0-67.749 97.297-68.745 97.297-104.941 0-16.216-8.78-24.243-28.957-24.243-20.29 1.153-38.489 9.27-52.434 21.976l0.068-0.061-25.378-39.857c17.894-15.511 40.504-26.030 65.413-29.161l0.61-0.063v-37.517h38.038v39.509c33.211 6.072 58.054 34.785 58.054 69.3 0 1.557-0.051 3.102-0.15 4.634l0.011-0.209c0 71.409-97.586 69.741-97.586 103.285 0 16.61 9.104 22.911 26.34 22.911 15.884-0.583 30.023-7.592 39.979-18.489l0.040-0.044z" />
<glyph unicode="&#xe964;" glyph-name="Topup_white" horiz-adv-x="1133" d="M174.265 960h0.002c-0.012 0-0.024 0-0.037 0-96.206 0-174.199-77.981-174.219-174.184v-573.356c0.013-96.207 78.009-174.194 174.219-174.194 0.012 0 0.024 0 0.035 0l409.978-7.123c-108.463 356.152 236.848 610.2 540.749 388.827l7.876 365.835c0 96.208-83.849 174.196-180.091 174.196h-778.511zM0.232 698.701h1132.636v-87.092h-1132.636v87.092zM886.453 410.9c131.14 0 237.45-106.31 237.45-237.45s-106.31-237.45-237.45-237.45c-131.14 0-237.45 106.31-237.45 237.45v0c0 131.14 106.31 237.45 237.45 237.45v0zM970.719 260.090c-13.838 16.201-33.009 27.489-54.769 31.141l-0.54 0.075v38.513h-38.061v-39.185c-32.396-5.562-56.736-33.441-56.736-67.005 0-1.545 0.052-3.079 0.153-4.599l-0.011 0.206c0-67.749 97.297-68.745 97.297-104.941 0-16.216-8.78-24.243-28.957-24.243-20.29 1.153-38.489 9.27-52.434 21.976l0.068-0.061-25.378-39.857c17.894-15.511 40.504-26.030 65.413-29.161l0.61-0.063v-37.517h38.038v39.509c33.211 6.072 58.054 34.785 58.054 69.3 0 1.557-0.051 3.102-0.15 4.634l0.011-0.209c0 71.409-97.586 69.741-97.586 103.285 0 16.61 9.104 22.911 26.34 22.911 15.884-0.583 30.023-7.592 39.979-18.489l0.040-0.044z" />
<glyph unicode="&#xe965;" d="M346.224 107.908s-120.883 34.82-200.157 215.925l256 95.042c12.784-30.906 39.085-53.966 71.328-62.041l0.72-0.153z" />
<glyph unicode="&#xe966;" horiz-adv-x="1038" d="M-0.085 776.092l35.779-196.765c94.419 12.007 232.568 35.779 232.568 35.779 27.268 16.451 17.908 94.467-25.775 89.38l-68.911-0.316c80.181 107.837 207.213 176.943 350.386 176.943 232.112 0 421.802-181.632 434.693-410.519l0.051-1.142 79.036-5.463c-10.13 275.957-236.282 495.823-513.787 495.823-174.293 0-328.328-86.731-421.302-219.39l-1.097-1.651-12.141 55.216c-8.316 43.5-82.739 48.223-89.502-17.895zM992.713 287.681l-205.409-34.237c-50.020 2.805-58.458-74.569-17.106-85.58l80.396-7.284c-80.101-89.482-195.962-145.532-324.914-145.532-219.118 0-400.437 161.838-430.946 372.502l-0.279 2.345-79.85 5.512c28.585-259.179 246.354-458.977 510.788-458.977 160.173 0 303.225 73.305 397.436 188.197l0.718 0.903 0.704-60.388c5.342-33.084 90.376-54.512 95.39-4.613 0 0.024-15.989 166.668-26.928 227.154z" />
<glyph unicode="&#xe967;" horiz-adv-x="1038" d="M818.36 450.841c0-157.571-127.737-285.308-285.308-285.308s-285.308 127.737-285.308 285.308c0 157.571 127.737 285.308 285.308 285.308s285.308-127.737 285.308-285.308z" />
<glyph unicode="&#xe968;" horiz-adv-x="1038" d="M632.934 574.555c-17.619 20.624-42.026 34.993-69.73 39.641l-0.687 0.095v49.012h-48.442v-49.874c-45.127-9.3-72.043-42.687-72.043-90.874 0-86.199 123.836-87.498 123.836-133.548 0-20.712-11.169-30.862-36.847-30.862-21.526 0-42.226 8.875-66.653 27.924l-32.294-50.724c22.775-19.754 51.562-33.145 83.277-37.12l0.774-0.079v-47.762h48.442v50.275c49.267 11 73.682 47.349 73.682 93.836 0 90.874-124.2 88.761-124.2 131.46 0 21.125 11.594 29.138 33.533 29.138 20.248-0.751 38.268-9.705 50.939-23.617l0.052-0.058z" />
<glyph unicode="&#xe969;" glyph-name="Transfer_green" horiz-adv-x="1045" d="M965.424 469.43c-14.634 230.565-205.216 412.025-438.182 412.025-143.891 0-271.613-69.225-351.68-176.189l-0.82-1.145 69.402 0.309c44 5.084 53.414-72.921 25.963-89.372 0 0-139.191-23.778-234.227-35.784l-36.016 196.762c6.805 66.116 81.755 61.399 90.068 17.882l12.276-55.212c94.921 134.666 249.794 221.557 424.962 221.557 278.519 0 505.731-219.674 517.825-495.213l0.038-1.092zM534.435 158.705c-159.81 1.151-288.918 130.968-288.918 290.94 0 160.686 130.262 290.948 290.948 290.948s290.948-130.262 290.948-290.948c0-0.004 0-0.009 0-0.013v0.001c-0.559-160.796-131.039-290.93-291.912-290.93-0.374 0-0.749 0.001-1.123 0.002h0.058zM537.431 550.16c18.922-0.697 35.772-9.021 47.667-21.97l0.045-0.049 34.14 40.114c-16.539 19.207-39.388 32.574-65.301 36.875l-0.64 0.088v45.624h-45.392v-46.397c-38.613-6.44-67.682-39.602-67.682-79.554 0-1.761 0.056-3.508 0.168-5.24l-0.012 0.236c0-80.228 115.992-81.407 115.992-124.266 0-19.332-10.478-28.708-34.527-28.708-24.177 1.349-45.879 10.965-62.549 26.041l0.088-0.078-30.255-47.19c21.368-18.41 48.342-30.871 78.041-34.532l0.718-0.072v-44.464h45.392v46.803c39.559 7.032 69.209 41.161 69.209 82.215 0 1.79-0.056 3.567-0.167 5.329l0.012-0.241c0 84.539-116.398 82.567-116.398 122.295-0.058 19.757 10.807 27.142 31.453 27.142zM339.548 57.966c55.546-27.216 120.882-43.131 189.934-43.131 129.657 0 246.208 56.111 326.697 145.374l0.347 0.391-80.963 7.25c-41.641 11.019-33.135 88.386 17.244 85.583l206.853 34.218c11.019-60.471 27.065-227.094 27.065-227.094-5.046-49.896-90.687-28.476-96.061 4.62l-0.715 60.374c-95.883-115.994-239.791-189.351-400.832-189.351-81.419 0-158.459 18.751-227.036 52.17l3.075-1.353c-158.427 76.373-270.248 227.333-290.366 406.050l-0.214 2.34 80.402-5.51c21.542-147.483 114.466-269.326 241.967-330.8l2.603-1.131z" />
<glyph unicode="&#xe96a;" glyph-name="Transfer_white" horiz-adv-x="1045" d="M965.424 469.43c-14.634 230.565-205.216 412.025-438.182 412.025-143.891 0-271.613-69.225-351.68-176.189l-0.82-1.145 69.402 0.309c44 5.084 53.414-72.921 25.963-89.372 0 0-139.191-23.778-234.227-35.784l-36.016 196.762c6.805 66.116 81.755 61.399 90.068 17.882l12.276-55.212c94.921 134.666 249.794 221.557 424.962 221.557 278.519 0 505.731-219.674 517.825-495.213l0.038-1.092zM534.435 158.705c-159.81 1.151-288.918 130.968-288.918 290.94 0 160.686 130.262 290.948 290.948 290.948s290.948-130.262 290.948-290.948c0-0.004 0-0.009 0-0.013v0.001c-0.559-160.796-131.039-290.93-291.912-290.93-0.374 0-0.749 0.001-1.123 0.002h0.058zM537.431 550.16c18.922-0.697 35.772-9.021 47.667-21.97l0.045-0.049 34.14 40.114c-16.539 19.207-39.388 32.574-65.301 36.875l-0.64 0.088v45.624h-45.392v-46.397c-38.613-6.44-67.682-39.602-67.682-79.554 0-1.761 0.056-3.508 0.168-5.24l-0.012 0.236c0-80.228 115.992-81.407 115.992-124.266 0-19.332-10.478-28.708-34.527-28.708-24.177 1.349-45.879 10.965-62.549 26.041l0.088-0.078-30.255-47.19c21.368-18.41 48.342-30.871 78.041-34.532l0.718-0.072v-44.464h45.392v46.803c39.559 7.032 69.209 41.161 69.209 82.215 0 1.79-0.056 3.567-0.167 5.329l0.012-0.241c0 84.539-116.398 82.567-116.398 122.295-0.058 19.757 10.807 27.142 31.453 27.142zM339.548 57.966c55.546-27.216 120.882-43.131 189.934-43.131 129.657 0 246.208 56.111 326.697 145.374l0.347 0.391-80.963 7.25c-41.641 11.019-33.135 88.386 17.244 85.583l206.853 34.218c11.019-60.471 27.065-227.094 27.065-227.094-5.046-49.896-90.687-28.476-96.061 4.62l-0.715 60.374c-95.883-115.994-239.791-189.351-400.832-189.351-81.419 0-158.459 18.751-227.036 52.17l3.075-1.353c-158.427 76.373-270.248 227.333-290.366 406.050l-0.214 2.34 80.402-5.51c21.542-147.483 114.466-269.326 241.967-330.8l2.603-1.131z" />
<glyph unicode="&#xe96b;" d="M512.219-3.559c-0.327-0.017-0.71-0.027-1.095-0.027-12.095 0-21.899 9.805-21.899 21.899 0 0.010 0 0.019 0 0.029v-0.002c0 12.095 9.805 21.899 21.899 21.899v0 0c12.639 0 22.885-10.246 22.885-22.885s-10.246-22.885-22.885-22.885v0z" />
<glyph unicode="&#xe96c;" d="M512.219 393.69c-29.632 0-53.653 24.021-53.653 53.653s24.021 53.653 53.653 53.653c29.632 0 53.653-24.021 53.653-53.653v0c-0.614-29.157-24.395-52.558-53.642-52.558-0.081 0-0.162 0-0.243 0.001h0.013z" />
<glyph unicode="&#xe96d;" d="M854.282 126.303c0-12.095-9.805-21.899-21.899-21.899s-21.899 9.805-21.899 21.899c0 12.095 9.805 21.899 21.899 21.899s21.899-9.805 21.899-21.899z" />
<glyph unicode="&#xe96e;" glyph-name="Utilities_green" horiz-adv-x="1117" d="M617.655 146.394c-36.519-36.522-59.106-86.974-59.106-142.702 0-0.019 0-0.039 0-0.058v0.003-67.637h67.637c55.716 0.009 106.156 22.595 142.67 59.106l316.911 316.846c19.356 19.356 31.328 46.097 31.328 75.633 0 59.073-47.888 106.962-106.962 106.962-29.537 0-56.277-11.972-75.633-31.328v0l-316.846-316.824zM551.851 212.198l235.791 235.813h-89.455c-60.873 0.262-60.83 92.859 0 93.077h185.172c63.71 55.309 163.507 61.811 233.74 15.273v170.925c-0.161 128.452-104.242 232.541-232.676 232.714h-651.687c-128.469-0.149-232.575-104.247-232.736-232.699v-465.488c0.161-128.467 104.267-232.565 232.722-232.714h233.994c6.149 71.999 37.521 135.688 85.125 183.089l0.010 0.010zM698.187 727.286h186.176c60.895-0.284 60.851-92.859 0-93.099h-186.176c-60.83 0.284-60.786 92.859 0 93.099zM325.77 168.736c-25.681 0.012-46.495 20.834-46.495 46.517 0 0.008 0 0.015 0 0.023v-0.001 46.539h-12.48c-51.381 0.109-96.256 27.858-120.56 69.162l-0.357 0.656c-3.933 6.682-6.256 14.721-6.256 23.302 0 25.693 20.829 46.522 46.522 46.522 17.112 0 32.067-9.239 40.147-23.001l0.119-0.219c8.232-14.001 23.198-23.265 40.334-23.324h105.588c46.386-3.033 67.113 72.153 16.56 81.928l-141.536 23.586c-163.005 30.218-127.921 267.776 31.92 266.86v46.539c0.284 60.873 92.859 60.83 93.099 0v-46.539h12.458c51.384-0.12 96.262-27.864 120.582-69.163l0.357-0.656c3.933-6.682 6.256-14.721 6.256-23.302 0-25.693-20.829-46.522-46.522-46.522-17.112 0-32.067 9.239-40.147 23.001l-0.119 0.219c-8.236 14.026-23.236 23.299-40.404 23.324h-105.561c-46.408 3.033-67.113-72.153-16.56-81.928l141.536-23.586c163.027-30.262 127.899-267.82-31.877-266.904v-46.495c0-25.703-20.836-46.539-46.539-46.539-0.008 0-0.015 0-0.023 0h0.001z" />
<glyph unicode="&#xe96f;" horiz-adv-x="1265" d="M148.792 959.927s-148.792-29.395-148.792-149.839v-699.259s25.63-174.829 198.395-174.829h892.784s164.275 5.568 173.594 149.839v724.249s-14.668 149.839-198.395 149.839h-917.585zM954.772 610.298h310c-0.989-124.878 0-173.259 0-324.668h-310c-88.996 0.869-160.805 73.216-160.805 162.334s71.81 161.465 160.723 162.334l0.082 0.001zM371.988 959.927v0z" />
<glyph unicode="&#xe970;" horiz-adv-x="1265" d="M996.437 535.371c0.168 0.001 0.368 0.002 0.567 0.002 43.862 0 79.419-35.557 79.419-79.419s-35.557-79.419-79.419-79.419c-43.862 0-79.419 35.557-79.419 79.419 0 0.004 0 0.009 0 0.013v-0.001c0 0.082 0 0.179 0 0.277 0 43.604 35.27 78.971 78.837 79.128h0.015z" />
<glyph unicode="&#xe971;" glyph-name="withdraw_green" horiz-adv-x="951" d="M820.352-64h-671.195c-129.829 0-149.157 130.999-149.157 130.999v523.995c0 90.24 111.872 112.274 111.872 112.274h167.79c6.985-113.207 100.169-187.136 223.726-187.136s217.6 78.629 223.744 187.136h74.569c138.13 0 149.157-112.274 149.157-112.274v-149.723h-233.051c-65.883-1.667-118.654-55.471-118.654-121.6s52.771-119.933 118.5-121.597l0.154-0.003h233.051v-149.705c-6.985-108.197-130.505-112.366-130.505-112.366zM689.829 325.632c0.114 32.664 26.62 59.099 59.3 59.099 32.751 0 59.301-26.55 59.301-59.301s-26.55-59.3-59.3-59.301v0c-32.764 0.062-59.301 26.637-59.301 59.41 0 0.032 0 0.064 0 0.096v-0.005zM950.857 441.271v-243.2c0 113.371-0.75 149.632 0 243.2zM506.514 574.409c-0.952-0.017-2.075-0.027-3.2-0.027-106.493 0-192.823 86.33-192.823 192.823s86.33 192.823 192.823 192.823c106.49 0 192.818-86.325 192.823-192.814v-0.001c0.004-0.464 0.006-1.013 0.006-1.562 0-105.023-84.652-190.274-189.446-191.242l-0.092-0.001zM514.67 831.397c12.675-0.486 23.947-6.115 31.856-14.846l0.034-0.038 22.821 27.099c-11 12.925-26.246 21.945-43.562 24.899l-0.434 0.061v30.83h-30.336v-31.36c-25.836-4.492-45.23-26.746-45.23-53.529 0-1.265 0.043-2.52 0.128-3.764l-0.009 0.168c0-54.199 77.531-55.003 77.531-83.968 0.029-0.387 0.045-0.838 0.045-1.293 0-10.301-8.351-18.651-18.651-18.651-1.587 0-3.128 0.198-4.599 0.571l0.129-0.028c-16.184 0.929-30.694 7.424-41.798 17.582l0.051-0.046-20.224-31.872c14.244-12.418 32.272-20.839 52.142-23.338l0.484-0.050v-30.025h30.336v31.616c26.482 4.909 46.27 27.829 46.27 55.37 0 1.273-0.042 2.537-0.126 3.79l0.009-0.17c0 57.125-77.787 55.808-77.787 82.633-0.050 0.492-0.079 1.064-0.079 1.642 0 9.483 7.687 17.17 17.17 17.17 1.39 0 2.741-0.165 4.036-0.477l-0.117 0.024z" />
<glyph unicode="&#xe972;" glyph-name="withdraw_white" horiz-adv-x="951" d="M820.352-64h-671.195c-129.829 0-149.157 130.999-149.157 130.999v523.995c0 90.24 111.872 112.274 111.872 112.274h167.79c6.985-113.207 100.169-187.136 223.726-187.136s217.6 78.629 223.744 187.136h74.569c138.13 0 149.157-112.274 149.157-112.274v-149.723h-233.051c-65.883-1.667-118.654-55.471-118.654-121.6s52.771-119.933 118.5-121.597l0.154-0.003h233.051v-149.705c-6.985-108.197-130.505-112.366-130.505-112.366zM689.829 325.632c0.114 32.664 26.62 59.099 59.3 59.099 32.751 0 59.301-26.55 59.301-59.301s-26.55-59.3-59.3-59.301v0c-32.764 0.062-59.301 26.637-59.301 59.41 0 0.032 0 0.064 0 0.096v-0.005zM950.857 441.271v-243.2c0 113.371-0.75 149.632 0 243.2zM506.514 574.409c-0.952-0.017-2.075-0.027-3.2-0.027-106.493 0-192.823 86.33-192.823 192.823s86.33 192.823 192.823 192.823c106.49 0 192.818-86.325 192.823-192.814v-0.001c0.004-0.464 0.006-1.013 0.006-1.562 0-105.023-84.652-190.274-189.446-191.242l-0.092-0.001zM514.67 831.397c12.675-0.486 23.947-6.115 31.856-14.846l0.034-0.038 22.821 27.099c-11 12.925-26.246 21.945-43.562 24.899l-0.434 0.061v30.83h-30.336v-31.36c-25.836-4.492-45.23-26.746-45.23-53.529 0-1.265 0.043-2.52 0.128-3.764l-0.009 0.168c0-54.199 77.531-55.003 77.531-83.968 0.029-0.387 0.045-0.838 0.045-1.293 0-10.301-8.351-18.651-18.651-18.651-1.587 0-3.128 0.198-4.599 0.571l0.129-0.028c-16.184 0.929-30.694 7.424-41.798 17.582l0.051-0.046-20.224-31.872c14.244-12.418 32.272-20.839 52.142-23.338l0.484-0.050v-30.025h30.336v31.616c26.482 4.909 46.27 27.829 46.27 55.37 0 1.273-0.042 2.537-0.126 3.79l0.009-0.17c0 57.125-77.787 55.808-77.787 82.633-0.050 0.492-0.079 1.064-0.079 1.642 0 9.483 7.687 17.17 17.17 17.17 1.39 0 2.741-0.165 4.036-0.477l-0.117 0.024z" />
<glyph unicode="&#xe973;" glyph-name="Account_green" d="M284.877 733.235c0-125.239 101.526-226.765 226.765-226.765s226.765 101.526 226.765 226.765c0 125.239-101.526 226.765-226.765 226.765v0c-125.239 0-226.765-101.526-226.765-226.765v0zM902.912-64h-782.592c-42.415 0-76.8 34.385-76.8 76.8v0 147.917c0.493 158.463 128.82 286.79 287.236 287.283h361.621c158.375-0.609 286.586-128.891 287.078-287.236v-147.964c0-42.415-34.385-76.8-76.8-76.8v0z" />
</font>
</defs>
</svg>
